<?xml version="1.0" standalone="no"?>
<!DOCTYPE svg PUBLIC "-//W3C//DTD SVG 1.1//EN" "http://www.w3.org/Graphics/SVG/1.1/DTD/svg11.dtd" >
<svg xmlns="http://www.w3.org/2000/svg" xmlns:xlink="http://www.w3.org/1999/xlink" version="1.1">
<metadata></metadata>
<defs>
<font id="roboto_monobold_italic" horiz-adv-x="1202" >
<font-face units-per-em="2048" ascent="1536" descent="-512" />
<missing-glyph horiz-adv-x="500" />
<glyph horiz-adv-x="0" />
<glyph horiz-adv-x="0" />
<glyph />
<glyph unicode="&#x9;" />
<glyph unicode=" " />
<glyph unicode="!" d="M698 509h-247l149 947h278zM352 130q0 34 12 63.5t33.5 51t50.5 34t63 12.5q33 1 61.5 -10t49.5 -30.5t33 -47.5t12 -62t-12 -62.5t-33.5 -49.5t-50.5 -33t-62 -12q-33 -1 -61.5 9.5t-49.5 30t-33.5 46.5t-12.5 60z" />
<glyph unicode="&#x22;" d="M601 1416l-91 -408h-175l83 528h202zM999 1416l-90 -408h-174l83 528h200z" />
<glyph unicode="#" d="M594 410h-188l-143 -410h-180l142 410h-219l30 169h247l101 290h-226l30 171h254l146 416h179l-144 -416h188l145 416h181l-146 -416h209l-30 -171h-237l-101 -290h214l-30 -169h-242l-142 -410h-181zM463 579h189l100 290h-188z" />
<glyph unicode="$" d="M804 389q6 47 -6.5 81.5t-38 60t-60 44.5t-73.5 35q-78 32 -148.5 71.5t-123 93t-81 124t-22.5 164.5t44.5 166.5t99 124t139.5 81t167 38.5l40 215h157l-40 -219q88 -17 149.5 -60.5t99 -105t53.5 -138t12 -160.5h-271q2 43 -3.5 86.5t-23 78.5t-50.5 57t-85 23 q-44 1 -81.5 -11.5t-66.5 -37t-47.5 -59.5t-24.5 -79q-6 -47 8 -80.5t40 -58t61 -43t73 -34.5q77 -33 147 -73.5t122 -94t80 -124t22 -164.5q-6 -96 -45 -168.5t-100.5 -123t-141.5 -79t-169 -37.5l-36 -196h-156l37 198q-95 13 -165 53t-115.5 101.5t-66.5 141.5t-17 173 l272 -1q-3 -51 6 -96t31.5 -79t61 -54t94.5 -21q44 -1 85 11t74 35.5t55 58.5t28 81z" />
<glyph unicode="%" d="M133 1195q7 63 32 115.5t65.5 90t94.5 58t119 19.5q62 -2 109.5 -23.5t79 -59t45.5 -88.5t10 -111l-7 -77q-7 -62 -32 -114t-65.5 -89t-94 -57.5t-117.5 -18.5q-61 1 -108.5 22.5t-79.5 58.5t-47 87.5t-11 110.5zM312 1117q-1 -21 1.5 -42t11 -37.5t24 -27t41.5 -10.5 q25 0 44 10t31.5 26.5t20 38t10.5 43.5l8 79q1 21 -1.5 42t-10.5 38t-24 27.5t-42 10.5t-45 -10t-31.5 -26.5t-20 -38t-10.5 -43.5zM554 336q7 63 32.5 115.5t66 90t94.5 57.5t118 19q62 -2 109.5 -23.5t79 -58.5t46 -88t10.5 -111l-7 -78q-7 -63 -32 -115t-65 -89t-94 -57 t-118 -19q-62 1 -109.5 22.5t-80 59t-47.5 88t-10 110.5zM733 257q-1 -20 2 -41t12 -37.5t25 -27.5t40 -11q27 -1 46 8.5t31 26t18.5 38.5t9.5 46l8 79q1 21 -1.5 42t-11 37.5t-24 27t-40.5 10.5q-26 0 -45 -9.5t-32 -26t-20 -38t-10 -43.5zM338 199l-128 68l720 1023 l128 -68z" />
<glyph unicode="&#x26;" d="M37 364q5 73 32.5 132t70.5 108.5t97.5 90t112.5 75.5q-16 39 -30 78.5t-24 79.5t-14.5 81t-0.5 84q7 85 40.5 157t88.5 123t128.5 78.5t160.5 25.5q67 -2 122.5 -29t94 -71.5t58.5 -103.5t16 -125q-3 -57 -25 -104t-55 -87t-74.5 -74.5t-84.5 -64.5l-101 -73l183 -309 q45 63 72.5 129.5t37.5 142.5h231q-12 -136 -64 -255t-150 -215l138 -238h-293l-47 81q-80 -48 -164.5 -75.5t-179.5 -25.5q-84 1 -155.5 28.5t-123 77.5t-78 120.5t-20.5 157.5zM440 203q55 -2 106 14.5t100 39.5l-192 341l-11 -7q-24 -19 -45.5 -43t-38.5 -51t-28.5 -57 t-15.5 -61q-4 -33 1 -64.5t20.5 -55.5t41 -39.5t62.5 -16.5zM518 1094q-7 -48 5.5 -92.5t29.5 -87.5l102 69q39 29 66 63.5t31 85.5q1 19 -1 40t-10.5 38.5t-23.5 29.5t-39 13q-34 1 -61.5 -12t-48.5 -35.5t-33.5 -52t-16.5 -59.5z" />
<glyph unicode="'" d="M774 1382l-87 -389h-183l85 543h209z" />
<glyph unicode="(" d="M333 588q13 97 38.5 199.5t63.5 203t89.5 195.5t117 177.5t146 148.5t176.5 109l43 -155q-103 -78 -177.5 -178t-127 -213t-85 -236t-50.5 -247l-3 -25q-9 -66 -16 -143t-8 -158t7 -162.5t29 -156.5t58 -140.5t95 -114.5l-64 -149q-84 48 -144.5 119t-101 156t-64 180.5 t-32.5 193t-6.5 193t13.5 180.5z" />
<glyph unicode=")" d="M851 574q-14 -97 -40 -200t-66 -204.5t-93 -197t-120.5 -178t-150 -147.5t-179.5 -106l-39 153q103 78 178 178t127.5 214t85 237t50.5 247l4 25q9 66 16 142.5t7.5 157.5t-7.5 163t-29.5 157.5t-58.5 141t-94 114.5l64 148q84 -47 145.5 -117.5t104 -156t67 -181 t35.5 -193.5t9 -193.5t-13 -180.5z" />
<glyph unicode="*" d="M531 641l-364 96l94 198l343 -168l33 436h214l-105 -431l380 159l32 -216l-403 -91l213 -328l-185 -122l-146 372l-260 -357l-163 130z" />
<glyph unicode="+" d="M747 812h355l-44 -254h-355l-72 -412h-258l71 412h-356l44 254h356l69 394h258z" />
<glyph unicode="," d="M592 23q-11 -64 -34 -124t-57 -114.5t-77 -102.5t-92 -88l-142 78q50 81 88.5 161.5t55.5 175.5l40 234h255z" />
<glyph unicode="-" d="M1070 530h-809l39 225h810z" />
<glyph unicode="." d="M334 154q0 42 14.5 77t40 60.5t61 40t76.5 14.5q39 0 72.5 -13t57.5 -36.5t38 -56.5t14 -72q0 -41 -15 -76t-40.5 -60t-61 -39t-75.5 -14q-39 0 -72 12.5t-57.5 35.5t-38.5 55.5t-14 71.5z" />
<glyph unicode="/" d="M344 -125h-262l803 1581h263z" />
<glyph unicode="0" d="M1052 555q-17 -113 -56 -218t-105 -185.5t-160.5 -128t-221.5 -44.5q-121 3 -200 54t-122.5 132t-55.5 182.5t1 206.5l54 348q16 112 55.5 217t105.5 185.5t160.5 128t221.5 44.5q81 -2 142.5 -26t106.5 -64.5t74 -95t44 -117.5t17.5 -132.5t-6.5 -139.5zM424 684 l418 282q5 43 5.5 92t-12 92t-42.5 72t-87 31q-63 3 -106 -25.5t-70.5 -74t-42 -100.5t-21.5 -106zM813 764l-421 -283q-4 -42 -3.5 -90t13.5 -89.5t43 -69.5t86 -30q64 -3 107 26t70.5 75t42 101.5t22.5 106.5z" />
<glyph unicode="1" d="M694 0h-274l193 1111l-380 -131l44 252l643 224h20z" />
<glyph unicode="2" d="M967 0h-964l31 200l526 497q35 34 76 73t77.5 83.5t63 92.5t33.5 100q5 40 -1.5 75.5t-25 62.5t-49 43.5t-73.5 18.5q-57 1 -101.5 -17t-76 -51t-50.5 -78t-26 -98l-271 -1q8 107 56.5 195t124 151t171.5 97t201 32q93 -2 169 -32t128.5 -84.5t78 -131t17.5 -171.5 q-7 -86 -45 -161.5t-93 -142t-119 -126t-123 -114.5l-311 -290h612z" />
<glyph unicode="3" d="M451 850l135 -1q51 0 96 14.5t80 41.5t57.5 67.5t29.5 93.5q10 84 -31.5 134.5t-126.5 52.5q-42 1 -79 -11t-66 -34.5t-49 -55t-28 -73.5l-270 -2q7 97 52.5 172t115.5 126t157 77t179 24t172 -28.5t138 -78t88 -126.5t22 -174q-5 -60 -27.5 -109.5t-58 -90t-81 -72.5 t-96.5 -56q48 -23 81.5 -57t54.5 -76.5t29 -91t4 -100.5q-8 -108 -56.5 -190t-124.5 -137.5t-171.5 -83t-196.5 -25.5q-93 2 -172.5 31t-136.5 82.5t-88 130t-28 173.5l269 -1q-2 -85 45 -137.5t135 -55.5q50 -1 94 14t78.5 43t57 68.5t28.5 90.5q13 102 -37 156.5 t-150 57.5l-162 1z" />
<glyph unicode="4" d="M915 541h164l-39 -225h-164l-55 -316h-271l55 316h-586l21 186l751 954h283zM320 541h324l102 544l-35 -51z" />
<glyph unicode="5" d="M169 721l208 735h787l-41 -236h-559l-100 -322q48 30 102.5 44t110.5 13q104 -1 177 -41.5t117.5 -107t61 -153.5t7.5 -181q-11 -108 -55 -199.5t-114.5 -157.5t-164.5 -102t-204 -33q-93 2 -171 33t-135 86.5t-88.5 132.5t-31.5 171h265q2 -42 14 -78t34 -63t55 -43 t78 -17q61 -2 105 23t73.5 66t46 92.5t22.5 104.5q5 49 -1 94.5t-27 80.5t-58 56.5t-93 22.5q-60 1 -108 -19.5t-92 -58.5z" />
<glyph unicode="6" d="M983 1469l-24 -232l-12 1q-104 1 -189 -27t-152.5 -80.5t-118 -128t-83.5 -169.5q60 62 135.5 100.5t164.5 37.5q100 -2 169 -45t110 -112t56.5 -155t7.5 -173q-9 -106 -52.5 -199.5t-113.5 -162.5t-163.5 -108t-203.5 -36q-119 3 -203 53.5t-135.5 131.5t-71 183 t-7.5 209l14 107q23 168 89 314.5t171.5 255t248.5 171.5t321 64h42zM610 749q-38 1 -72 -10t-63.5 -30.5t-54.5 -46t-44 -56.5l-11 -84q-3 -31 -3.5 -66t3.5 -70.5t15 -68t30 -57.5t48 -40.5t70 -16.5q57 -2 101 23t75.5 65.5t49.5 91t23 100.5q4 44 -1.5 90.5t-24.5 85 t-53.5 63.5t-87.5 27z" />
<glyph unicode="7" d="M1168 1289l-747 -1289h-296l743 1229h-704l36 227h994z" />
<glyph unicode="8" d="M1105 1077q-5 -59 -25.5 -109t-53.5 -91t-76.5 -74.5t-94.5 -59.5q87 -57 128.5 -145t34.5 -191q-7 -105 -53 -185.5t-118 -135t-164 -81.5t-191 -25q-92 1 -172 29t-137.5 79.5t-88.5 127t-23 173.5q5 67 28.5 122.5t61.5 100.5t88 80.5t108 62.5q-74 55 -109 134.5 t-28 170.5q7 100 48.5 178t108 132t152.5 81t182 25q88 -2 163.5 -29.5t129 -79t81 -124.5t20.5 -166zM750 425q5 42 -3 80t-28.5 66.5t-53.5 45.5t-78 18q-50 1 -91.5 -16.5t-73 -48t-51 -72t-24.5 -89.5q-5 -43 3 -80.5t29 -65t54.5 -44t78.5 -17.5q49 -1 90 16.5 t72.5 47.5t51 71t24.5 88zM833 1064q4 37 -3 70.5t-24.5 59.5t-46 41.5t-68.5 16.5q-45 1 -80.5 -15.5t-62 -44.5t-42 -65t-19.5 -79q-4 -37 2.5 -71t23.5 -60.5t45 -43t69 -16.5q44 -1 80 16t62.5 46t42.5 66.5t21 78.5z" />
<glyph unicode="9" d="M253 220q196 -2 323 85.5t194 269.5q-113 -105 -268 -102q-100 1 -170.5 43t-113.5 110t-59.5 154t-8.5 175q6 70 27.5 136.5t56 125t81.5 107t104 83t123.5 53t140.5 16.5q81 -2 144 -27t109.5 -68t78 -100.5t49 -122.5t21.5 -136t-3 -140l-12 -96q-23 -173 -87.5 -319 t-169 -252.5t-248.5 -166.5t-325 -61h-26l24 234zM581 686q37 -1 70 10t61 30.5t51 46.5t41 58l13 101q5 43 4 97.5t-16 103.5t-48.5 83t-92.5 36q-57 1 -100 -26.5t-73 -71t-47 -95.5t-22 -100q-5 -44 -0.5 -91.5t22 -87t50.5 -66.5t87 -28z" />
<glyph unicode=":" d="M348 154q0 42 14.5 77t40 60.5t61 40t76.5 14.5q39 0 72.5 -13t57.5 -36.5t38 -56.5t14 -72q0 -41 -15 -76t-40.5 -60t-61 -39t-75.5 -14q-39 0 -72 12.5t-57.5 35.5t-38.5 55.5t-14 71.5zM490 980q0 42 14.5 77t40 60.5t61 40t76.5 14.5q39 0 72.5 -13t57.5 -36.5 t38 -56.5t14 -72q0 -41 -15 -76t-40.5 -60t-61 -39t-75.5 -14q-39 0 -72 12.5t-57.5 35.5t-38.5 55.5t-14 71.5z" />
<glyph unicode=";" d="M528 980q0 42 14.5 77t40 60.5t61 40t76.5 14.5q39 0 72.5 -13t57.5 -36.5t38 -56.5t14 -72q0 -41 -15 -76t-40.5 -60t-61 -39t-75.5 -14q-39 0 -72 12.5t-57.5 35.5t-38.5 55.5t-14 71.5zM666 23q-11 -64 -34 -124t-57 -114.5t-77 -102.5t-92 -88l-142 78 q50 81 88.5 161.5t55.5 175.5l40 234h255z" />
<glyph unicode="&#x3c;" d="M500 647l-83 -29l49 -20l512 -188l-45 -261l-797 368l39 224l924 368l-42 -276z" />
<glyph unicode="=" d="M1092 717h-919l40 228h919zM1017 286h-919l40 227h919z" />
<glyph unicode="&#x3e;" d="M197 839l45 259l811 -367l-39 -226l-939 -368l49 280l576 188l75 23l-42 17z" />
<glyph unicode="?" d="M466 441q5 59 14 106.5t27.5 88t49 77t77.5 73.5q34 27 73 59.5t73.5 70t60 79.5t32.5 88q12 81 -27.5 123.5t-119.5 44.5q-42 1 -77.5 -11.5t-62.5 -35.5t-45 -55.5t-26 -72.5l-272 -1q9 101 52.5 177t111 126.5t154.5 75.5t184 23q89 -2 166.5 -25.5t134 -70.5 t86 -118.5t21.5 -168.5q-6 -76 -37.5 -136.5t-77.5 -111.5t-101.5 -95.5t-109.5 -87.5q-29 -24 -49.5 -47.5t-35 -50t-23 -57t-13.5 -66.5zM365 133q0 34 11.5 63.5t33 51.5t50.5 34.5t63 12.5q33 1 62 -10t50 -31t33 -48t12 -61q0 -35 -12 -63.5t-33.5 -49.5t-50.5 -33 t-63 -12q-33 -1 -61.5 9.5t-49.5 30t-33 46.5t-12 60z" />
<glyph unicode="@" d="M1174 830q-7 -47 -18.5 -104.5t-30.5 -116t-46 -114.5t-64.5 -98.5t-86 -68t-109.5 -24.5q-51 2 -88.5 27t-55.5 73q-34 -38 -74.5 -67t-94.5 -30q-72 0 -111.5 39.5t-55.5 98t-15 123.5t10 116q9 52 25.5 106.5t41 105.5t57 96t74.5 78t93.5 51.5t112.5 17.5 q60 -1 110 -19.5t94 -58.5l-122 -528q-2 -14 -3.5 -28t0.5 -25.5t10 -19.5t26 -9q33 -2 57.5 19t42.5 55t30 76t20 83t12.5 76.5t7.5 55.5q7 54 10 110t-2.5 107.5t-22 97.5t-47.5 80.5t-78.5 55t-115.5 22.5q-82 2 -151 -23t-126 -70.5t-102 -107t-79 -131t-56.5 -142.5 t-33.5 -142q-10 -58 -14 -118.5t2 -118.5t23.5 -110t51 -91t85 -62t125.5 -24q63 -1 125 13.5t120 39.5l22 -138q-58 -39 -129 -56t-141 -15q-98 1 -172 29t-126.5 75.5t-85.5 112t-48.5 140t-15.5 158t13 166.5q14 90 44.5 182.5t77 178.5t108 161.5t137.5 131t165.5 86 t191.5 28.5q84 -2 148.5 -28t112 -70t78.5 -103t47 -126t18 -140t-8 -145zM507 684q-2 -11 -5.5 -32t-5.5 -45.5t-1.5 -50t6.5 -47t18 -35t33 -14.5q16 -1 30 4.5t27 14t24 19t22 21.5l3 16l119 450q-14 3 -26 3q-59 1 -101.5 -28t-71.5 -74.5t-46 -99.5t-25 -102z" />
<glyph unicode="A" d="M774 304h-423l-136 -304h-297l715 1456h249l202 -1456h-281zM460 543h291l-51 533z" />
<glyph unicode="B" d="M20 0l253 1456l460 -1q92 -2 178 -23.5t151 -68t101 -119.5t28 -178q-5 -60 -26 -109.5t-55.5 -88.5t-80 -69.5t-98.5 -52.5q50 -18 85.5 -50t57.5 -73t31 -89.5t6 -98.5q-8 -115 -57 -198t-125.5 -136t-174.5 -77.5t-203 -23.5h-531zM407 642l-72 -415l229 -2 q50 1 96.5 14t84 39.5t62.5 65.5t33 92q14 94 -29 147.5t-137 57.5zM442 845l191 -2q49 0 96 11t85.5 35t64.5 61.5t34 91.5q7 50 -5 84.5t-38 56t-64 32t-83 11.5l-214 1z" />
<glyph unicode="C" d="M1075 457q-15 -110 -64 -199t-124 -152t-172 -96.5t-207 -30.5q-89 2 -158 29.5t-119.5 74t-83.5 109t-50.5 134t-20 149t7.5 154.5l29 196q12 81 37.5 162t63.5 154t89.5 135.5t116.5 107.5t143.5 70t170.5 23q112 -2 195 -39.5t137.5 -102.5t82.5 -154t31 -195l-272 1 q0 53 -7.5 100t-29 82t-59.5 56.5t-98 23.5q-57 2 -101 -16.5t-77.5 -50t-58 -74.5t-41.5 -90.5t-28 -96.5t-17 -94l-28 -199q-5 -37 -9 -82t-3.5 -91t8.5 -90t28 -78.5t54 -56t87 -23.5q60 -3 107 15t81 51t56 79.5t33 102.5z" />
<glyph unicode="D" d="M17 0l252 1456l352 -1q141 -3 245 -58.5t170 -147t91.5 -211t9.5 -251.5l-17 -120q-20 -137 -79 -259t-150.5 -212.5t-213 -143.5t-266.5 -52h-394zM506 1228l-174 -1002l91 -2q95 0 167 37.5t123 99t82.5 141.5t44.5 165l17 123q6 48 6.5 98.5t-7 98.5t-25 90.5t-47 75 t-72.5 52t-102 22.5z" />
<glyph unicode="E" d="M1004 638h-580l-72 -411h679l-40 -227h-953l253 1456h950l-40 -229h-675l-64 -367h581z" />
<glyph unicode="F" d="M1025 603h-605l-105 -603h-275l252 1456h957l-41 -229h-680l-69 -396h606z" />
<glyph unicode="G" d="M1033 169q-44 -53 -105 -89.5t-130 -59t-140.5 -32t-137.5 -8.5q-90 2 -159.5 29.5t-120 73.5t-84 108t-51 133t-20.5 148.5t7 155.5l29 198q12 80 37 160t62.5 152.5t88.5 135t115 108t141.5 70.5t168.5 24q107 -2 187.5 -34t135 -90.5t84 -142t34.5 -186.5h-266 q-2 48 -12 89t-32 71t-57.5 47.5t-88.5 19.5t-95.5 -17t-76.5 -52t-59 -76.5t-43.5 -91t-30 -95.5t-17.5 -90l-29 -201q-5 -38 -8.5 -83t-1 -91.5t12.5 -89.5t31.5 -77.5t57 -55.5t88.5 -23q56 -2 113 12.5t102 49.5l51 265h-235l37 210h507z" />
<glyph unicode="H" d="M956 0h-271l110 631h-398l-110 -631h-272l252 1456h273l-104 -597h398l104 597h271z" />
<glyph unicode="I" d="M335 1456h819l-40 -227h-275l-174 -1003h276l-40 -226h-819l40 226h268l174 1003h-269z" />
<glyph unicode="J" d="M941 1456h275l-171 -1009q-15 -103 -64 -189.5t-122.5 -149t-166.5 -96.5t-198 -32q-104 1 -184 33t-133.5 90.5t-79.5 141t-23 184.5l275 -1q-2 -47 4 -87.5t25 -70t52.5 -47t86.5 -18.5q52 -1 95 18.5t75 53t53 77.5t29 92z" />
<glyph unicode="K" d="M556 595l-188 -177l-72 -418h-276l253 1456h275l-114 -653l157 175l419 478h352l-599 -656l348 -800h-311z" />
<glyph unicode="L" d="M355 227h662l-40 -227h-936l252 1456h276z" />
<glyph unicode="M" d="M608 1456l38 -543l246 543h344l-253 -1456h-252l77 442l124 648l-285 -610h-137l-61 615l-106 -675l-73 -420h-252l253 1456h337z" />
<glyph unicode="N" d="M955 0h-267l-232 949l-165 -949h-276l252 1456h271l229 -945l166 945h275z" />
<glyph unicode="O" d="M1119 622q-13 -81 -38 -161t-63.5 -152t-90 -133.5t-116.5 -105.5t-143 -68t-170 -22q-87 2 -154.5 29.5t-117 74t-81.5 108t-49 132t-20 146.5t7 151l33 212q12 80 36.5 159.5t61 151.5t86.5 134t113 106.5t140 69t168 22.5q88 -2 156.5 -29t120 -73.5t85.5 -108 t52.5 -132t22.5 -147.5t-6 -153zM874 836q5 37 8 81t0.5 88.5t-12.5 86.5t-31 75t-55 54t-85 23q-55 2 -97 -15.5t-73.5 -49t-54.5 -73t-38.5 -87.5t-25.5 -93.5t-16 -90.5l-33 -215q-5 -35 -8.5 -78t-3 -88t8.5 -88t27 -77t51.5 -55.5t83.5 -23.5q54 -2 97 15.5t76.5 48.5 t58.5 73t42.5 88.5t28.5 94.5t18 91z" />
<glyph unicode="P" d="M407 534l-93 -534h-274l252 1456l469 -1q101 -3 185 -36t143.5 -93t89 -144t20.5 -188q-9 -112 -59.5 -197.5t-128.5 -144t-176.5 -89t-203.5 -30.5zM446 762l200 -3q53 1 100 17.5t84 46.5t61.5 73t31.5 97q6 47 -1 88.5t-28.5 73t-57.5 51t-86 21.5l-223 1z" />
<glyph unicode="Q" d="M1121 578q-23 -138 -85 -255t-172 -205l195 -224l-192 -151l-222 255q-35 -8 -70.5 -12.5t-72.5 -3.5q-80 1 -145.5 26t-115 67t-84.5 99t-55 122.5t-25.5 137t3.5 143.5l40 252q12 81 36.5 160.5t61.5 152t87 135t113.5 107.5t140.5 69.5t169 22.5q88 -2 157 -29.5 t120 -74t85.5 -108.5t53 -133.5t22.5 -148.5t-6 -153zM882 832q5 37 8 81.5t1 89.5t-11.5 87.5t-30.5 76t-55.5 54.5t-86.5 23q-55 2 -97.5 -16t-74.5 -49.5t-55 -73.5t-39 -88.5t-26.5 -94.5t-16.5 -91l-40 -255q-5 -34 -7 -74t1.5 -80t13.5 -77.5t30.5 -67t52 -47.5 t78.5 -20q74 -3 129 31t93 88t60.5 120t32.5 128z" />
<glyph unicode="R" d="M603 544h-212l-94 -544h-275l253 1456l459 -1q100 -2 186.5 -29.5t149 -80.5t95 -133t23.5 -188q-6 -77 -31 -141t-66.5 -115t-98.5 -89.5t-127 -66.5l201 -597v-15h-292zM430 772l191 -3q55 0 104.5 15.5t88 45.5t64 74t32.5 101q13 102 -36 160t-151 62l-213 1z" />
<glyph unicode="S" d="M827 387q7 52 -10.5 89t-50 63.5t-74.5 44.5t-83 32q-78 25 -153.5 63.5t-133.5 92.5t-91.5 126.5t-27.5 165.5q6 104 57 182t128 130t171.5 77t189.5 23q99 -2 183 -34t144 -90t92.5 -140t29.5 -184l-266 1q1 49 -11.5 90t-38 70t-64 45t-90.5 17q-44 1 -87.5 -10.5 t-79.5 -35t-61 -59t-31 -83.5q-6 -51 17 -86.5t61.5 -60t83.5 -41t82 -28.5q79 -27 151 -67.5t125.5 -96.5t83 -129.5t23.5 -164.5q-5 -71 -29 -129t-63.5 -103.5t-91 -79.5t-110.5 -55.5t-123 -31.5t-128 -9q-105 2 -196 34.5t-158 93.5t-103.5 147.5t-33.5 196.5l268 -1 q-3 -118 57.5 -182t181.5 -66q44 0 87.5 10.5t79.5 33t61 57t32 82.5z" />
<glyph unicode="T" d="M1274 1227h-435l-213 -1227h-275l213 1227h-430l40 229h1141z" />
<glyph unicode="U" d="M1217 1456l-163 -964q-17 -113 -61 -208t-114 -163.5t-165.5 -106t-214.5 -34.5q-110 2 -189.5 43.5t-128.5 111t-68 161.5t-7 194l165 966h274l-162 -966q-5 -43 -4.5 -91.5t14 -90.5t44 -70.5t86.5 -31.5q62 -3 107 21.5t75.5 65.5t48.5 93t26 104l165 966h272z" />
<glyph unicode="V" d="M561 410l430 1046h310l-656 -1456h-279l-199 1456h295z" />
<glyph unicode="W" d="M813 584l239 872h255l-423 -1456h-248l1 855l-262 -855h-248l33 1456h248l-36 -863l255 863h197z" />
<glyph unicode="X" d="M652 936l332 520h334l-519 -734l288 -722h-307l-176 528l-340 -528h-336l531 746l-280 710h308z" />
<glyph unicode="Y" d="M636 787l394 669h313l-618 -965l-86 -491h-273l91 530l-271 926h288z" />
<glyph unicode="Z" d="M368 227h693l-35 -227h-1034l29 183l841 1044h-677l37 229h1014l-27 -178z" />
<glyph unicode="[" d="M959 1475h-165l-249 -1595h165l-34 -215h-435l317 2025h435z" />
<glyph unicode="\" d="M385 1456h245l254 -1581h-244z" />
<glyph unicode="]" d="M558 1690h436l-317 -2025h-436l34 215h166l249 1595h-166z" />
<glyph unicode="^" d="M445 687h-230l444 769h196l175 -769h-207l-95 466l-4 69l-39 -92z" />
<glyph unicode="_" d="M887 -217h-886l38 217h887z" />
<glyph unicode="`" d="M955 1199h-198l-213 279h282z" />
<glyph unicode="a" d="M700 0q-8 26 -9.5 50.5t-0.5 50.5q-63 -59 -137.5 -90.5t-162.5 -30.5q-68 1 -129.5 23.5t-107 63t-70.5 98.5t-22 130t27.5 127t64.5 96t92 68.5t111 44.5t121.5 24t123.5 7l156 -2l13 67q6 39 -2.5 70t-29 52.5t-51.5 33t-70 12.5q-70 2 -117 -31.5t-61 -102.5l-271 -2 q6 90 51 155.5t113 108t150.5 62t163.5 18.5q85 -2 161 -27t131.5 -72.5t84 -117.5t19.5 -163l-75 -465q-9 -59 -13.5 -120.5t16.5 -119.5l-1 -18h-269zM461 194q71 -2 133.5 29t107.5 85l34 187l-123 1q-45 0 -91 -9t-85 -29.5t-66 -54.5t-34 -86q-4 -31 4 -54t25 -38 t41.5 -23t53.5 -8z" />
<glyph unicode="b" d="M1071 536q-8 -67 -25.5 -135.5t-45.5 -131t-67 -116.5t-90 -93t-115.5 -60.5t-142.5 -19.5q-81 2 -148.5 35.5t-112.5 100.5l-40 -116h-246l266 1536h272l-106 -553q55 58 122 89.5t148 29.5q74 -2 129.5 -26t95 -64t64 -93.5t36.5 -113.5t13.5 -123.5t-4.5 -124.5z M802 557q3 31 5 66.5t-0.5 70.5t-11 67.5t-26 57.5t-45.5 40.5t-70 16.5q-71 2 -123 -30.5t-90 -88.5l-75 -434q20 -60 63 -88.5t106 -30.5q70 -2 117.5 28t78 78t46.5 108t23 118z" />
<glyph unicode="c" d="M531 201q40 -1 76.5 10t66 32.5t50 53.5t26.5 72l254 2q-5 -92 -49 -165.5t-112.5 -124.5t-153 -77.5t-171.5 -24.5q-117 2 -200.5 47t-135 119.5t-71.5 172t-9 204.5l3 31q14 113 59 214t118 176.5t171.5 118.5t218.5 40q93 -2 168 -33t127.5 -86.5t79 -132t21.5 -169.5 l-255 1q3 40 -6 75.5t-30 61.5t-53 41.5t-75 17.5q-69 2 -117.5 -27t-80.5 -76.5t-50 -106t-25 -115.5l-4 -30q-5 -48 -5 -104t15 -103.5t49.5 -80t99.5 -34.5z" />
<glyph unicode="d" d="M100 543q8 67 26 135t46.5 131t68 117.5t91.5 94t116 61.5t142 20q75 -2 136.5 -31.5t108.5 -87.5l104 553h272l-266 -1536h-243l14 113q-57 -63 -127.5 -99t-158.5 -34q-72 2 -126 26.5t-93 65t-64 93.5t-38 112.5t-15.5 122t3.5 121.5zM369 521q-5 -45 -5.5 -99 t13.5 -101.5t46.5 -80t93.5 -34.5q69 -2 120 30.5t90 84.5l78 440q-42 112 -165 117q-68 1 -116 -30t-80 -80t-49 -109t-24 -117z" />
<glyph unicode="e" d="M556 -20q-111 2 -200.5 42.5t-151 110t-90.5 163.5t-19 204l4 41q13 114 61 217t124.5 180t178.5 122t222 42q113 -3 195 -47t132.5 -117.5t69 -168.5t5.5 -200l-18 -118h-707q-2 -52 13 -96.5t43.5 -77.5t70.5 -52.5t96 -20.5q85 -3 160.5 29.5t133.5 92.5l123 -151 q-36 -52 -87.5 -89t-111 -61t-123.5 -35t-124 -10zM665 878q-54 2 -97 -18t-76.5 -54t-58.5 -77t-44 -87h441l5 25q7 44 -2 82t-31.5 66t-57 44.5t-79.5 18.5z" />
<glyph unicode="f" d="M293 0l152 877h-276l37 205l268 -1l11 61q18 106 64 188.5t115.5 138.5t160 85t198.5 28q65 -1 129 -10t128 -20l-42 -218q-47 11 -94.5 16.5t-95.5 5.5q-111 1 -188.5 -50.5t-101.5 -163.5l-13 -61l387 1l-37 -205h-377l-153 -877h-272z" />
<glyph unicode="g" d="M101 542q8 68 27 137t49 132t71 117t94.5 93.5t119 61t143.5 19.5t145 -31t112 -93l36 105l249 -1l-178 -1047q-16 -110 -65 -197t-123.5 -146.5t-170.5 -90t-206 -27.5q-54 1 -107 12.5t-102 33.5t-92.5 54.5t-76.5 75.5l139 166q45 -58 105 -90.5t135 -34.5 q58 -2 107 14.5t87 48t64 76t38 100.5l14 64q-57 -55 -123.5 -85.5t-147.5 -28.5q-72 1 -127.5 25t-96 64.5t-67 93.5t-41 112.5t-17.5 122.5t3 123zM371 521q-3 -31 -4 -66.5t3 -70t14 -66t29 -56t47.5 -40t69.5 -16.5q67 -2 118 26t92 79l82 461q-24 54 -67 79t-101 27 q-68 1 -118 -29.5t-83.5 -79.5t-53 -109.5t-26.5 -117.5z" />
<glyph unicode="h" d="M455 931q59 76 137.5 124t178.5 47q96 -1 160.5 -39t101 -100.5t48 -142.5t2.5 -165l-109 -655h-272l111 658q5 45 0.5 83.5t-22.5 68t-50 46.5t-81 19q-66 2 -119.5 -23t-99.5 -70l-138 -782h-271l267 1536h271z" />
<glyph unicode="i" d="M292 1082h573l-149 -856h285l-40 -226h-857l39 226h299l109 629h-299zM619 1354q0 34 12 62t33.5 48.5t50 32t61.5 11.5q32 1 60 -9t49 -29t33.5 -46t12.5 -60q0 -34 -12 -62t-33 -48.5t-50 -32t-62 -11.5q-32 -1 -60 9t-49 29t-33.5 46t-12.5 60z" />
<glyph unicode="j" d="M381 1082h539l-189 -1107q-14 -105 -55.5 -183t-106.5 -129.5t-151.5 -76.5t-190.5 -25q-45 1 -89.5 5t-89.5 12l36 228q35 -8 72.5 -11.5t73.5 -4.5q93 -2 152 45.5t75 139.5l149 880h-265zM676 1354q0 33 11.5 61.5t32.5 48.5t49.5 32t61.5 12q32 1 60 -9t49.5 -29 t34 -46t12.5 -60q0 -34 -12 -62t-33.5 -48.5t-50 -32t-61.5 -11.5q-32 -1 -60 9.5t-48.5 29.5t-33 45.5t-12.5 59.5z" />
<glyph unicode="k" d="M514 445l-152 -125l-56 -320h-271l267 1536h271l-151 -865l90 87l343 324h344l-486 -462l336 -620h-316z" />
<glyph unicode="l" d="M355 1536h588l-227 -1310h301l-40 -226h-889l40 226h314l188 1083h-315z" />
<glyph unicode="m" d="M388 1083l-25 -133q19 33 41.5 61t50 48.5t61 32t73.5 11.5q60 -1 100.5 -28.5t53.5 -87.5q40 51 89.5 83.5t117.5 31.5q44 -1 75.5 -16t53 -40.5t34.5 -58.5t19 -69.5t6 -74t-3 -71.5l-128 -772h-247l131 775q2 16 2 33.5t-5 32.5t-16.5 25t-32.5 10q-29 0 -49 -14.5 t-38 -34.5l-145 -827h-239l131 776q1 16 1.5 34t-4 32.5t-16 24t-33.5 9.5q-33 0 -54 -19.5t-37 -45.5l-141 -811h-247l188 1082z" />
<glyph unicode="n" d="M464 1083l-18 -152q64 78 147.5 125.5t188.5 45.5q94 -2 155.5 -39t96.5 -98t46 -138.5t2 -160.5l-111 -666h-271l110 663q5 47 0.5 85.5t-22 66.5t-50 44t-83.5 17q-67 1 -120 -27.5t-96 -78.5l-135 -770h-272l188 1082z" />
<glyph unicode="o" d="M91 544q14 114 59.5 216.5t118.5 179.5t172.5 121t221.5 41q117 -2 201 -48t136.5 -121.5t72.5 -173.5t9 -205l-3 -22q-14 -114 -59.5 -215.5t-118.5 -177.5t-172.5 -119.5t-220.5 -40.5q-116 2 -200 47.5t-136.5 120t-73 172t-9.5 204.5zM360 523q-5 -50 -4 -105.5 t17.5 -103t53 -80t101.5 -34.5q68 -2 117.5 28.5t83 79t52 108t26.5 116.5l2 21q3 33 4.5 69.5t-3 72t-15 68t-30 57.5t-49.5 40.5t-73 17.5q-69 2 -118.5 -28t-83 -79t-53 -109t-26.5 -118z" />
<glyph unicode="p" d="M1069 537q-8 -66 -26 -133.5t-46.5 -130.5t-68 -117t-91 -94t-115 -62.5t-140.5 -20.5q-75 2 -138.5 30.5t-111.5 86.5l-97 -512h-271l260 1498l248 1l-17 -108q57 62 127 95.5t155 31.5q74 -2 129 -25.5t94.5 -64t64 -93.5t37 -112.5t14 -123t-4.5 -124.5zM799 559 q5 46 5 100.5t-14.5 102t-47.5 80t-95 34.5q-66 2 -116.5 -27t-89.5 -81l-80 -454q22 -57 64.5 -83.5t102.5 -28.5q68 -2 116 29t80 80.5t49 110t24 116.5z" />
<glyph unicode="q" d="M101 543q12 102 46.5 203t94.5 181.5t147 129t204 45.5q79 -2 145 -34t111 -97l42 111h242l-260 -1498h-272l99 509q-56 -55 -122 -85t-145 -28q-72 1 -127 25.5t-94.5 65t-64 94t-37.5 113t-15.5 122.5t4.5 122zM370 522q-3 -30 -4.5 -65t1.5 -70t12 -67.5t26.5 -58 t45.5 -41.5t69 -17q66 -2 116.5 27.5t89.5 80.5l82 463q-23 53 -65 78t-100 27q-68 1 -116.5 -29.5t-80.5 -80t-49.5 -109.5t-24.5 -117z" />
<glyph unicode="r" d="M962 1104q52 -1 102.5 -8.5t101.5 -20.5l-74 -277q-52 13 -104 20.5t-106 8.5q-212 2 -324 -176l-113 -651h-271l188 1082h252l-28 -178q36 44 77 81t88 63.5t99.5 41t111.5 14.5z" />
<glyph unicode="s" d="M767 303q5 25 -5 43.5t-28 32t-42.5 23t-49.5 16t-48.5 10.5t-39.5 8q-62 15 -129.5 38.5t-123 61t-90.5 92.5t-32 132q2 60 25 109.5t59.5 87.5t84 66t101 45.5t108.5 26t107 7.5q82 -1 160 -21.5t139.5 -63.5t99 -108.5t37.5 -156.5l-270 1q1 39 -12.5 67t-37.5 45.5 t-56.5 26t-69.5 8.5q-31 0 -66 -6t-66 -20.5t-53.5 -39t-28.5 -60.5q-7 -38 12 -61t49 -36.5t65 -20.5t61 -12q67 -13 140 -34.5t132.5 -58.5t97 -94t33.5 -141q-3 -63 -27 -112.5t-62.5 -87.5t-89 -64.5t-106 -43t-113 -23.5t-109.5 -6q-83 1 -163 24t-143.5 68.5t-103 113 t-39.5 159.5l257 -1q2 -44 19 -75t45.5 -50.5t65 -28.5t77.5 -9q31 0 68.5 5t71 18.5t58 37.5t31.5 62z" />
<glyph unicode="t" d="M762 1347l-46 -265h392l-36 -205h-392l-76 -466q-5 -43 -1.5 -79t19 -63t45 -43t76.5 -17q58 -2 115 7t114 21l9 -193q-36 -20 -76.5 -33t-83 -20t-85.5 -9.5t-83 -1.5q-91 1 -156.5 32.5t-106 85.5t-56 127.5t-6.5 159.5l81 492h-240l36 205h240l46 265h271z" />
<glyph unicode="u" d="M739 153q-30 -38 -64 -70t-73 -55.5t-83.5 -36.5t-93.5 -12q-66 1 -115.5 20t-85.5 52t-58.5 77t-34.5 95t-13.5 107t4.5 112l107 640h271l-107 -643q-5 -42 -5.5 -83.5t11 -74.5t39.5 -54t80 -22q73 -2 129.5 28.5t98.5 88.5l133 760h272l-188 -1082h-245z" />
<glyph unicode="v" d="M537 321l2 -73l28 81l345 753h291l-568 -1082h-254l-232 1082l269 1z" />
<glyph unicode="w" d="M761 342l219 740h254l-376 -1082h-238l-18 684l-251 -684h-239v1082h244l-39 -738l259 738h182z" />
<glyph unicode="x" d="M632 745l283 337h306l-444 -542l273 -540h-277l-186 353l-294 -353h-308l460 562l-263 520h277z" />
<glyph unicode="y" d="M557 442l9 -99l406 739h311l-747 -1245q-33 -57 -72.5 -108t-87.5 -88.5t-106.5 -59t-129.5 -21.5q-36 1 -70.5 7.5t-69.5 15.5l55 211q20 -1 42 -4t42 -1q29 2 52 15t42.5 32t37 41.5t34.5 42.5l96 139l-262 1023h286z" />
<glyph unicode="z" d="M433 223h610l-35 -223h-988l29 182l684 674h-566l36 226h950l-28 -177z" />
<glyph unicode="{" d="M774 -359q-60 3 -107.5 24t-83.5 55t-60.5 79t-38.5 95.5t-18.5 104.5t1.5 107l21 164q7 59 -0.5 104t-31 75.5t-64 47.5t-100.5 20l20 200q127 2 200 63.5t91 188.5l21 163q12 93 44.5 176t86 146.5t129.5 102.5t177 43l19 -159q-64 -1 -102 -30.5t-60 -74.5t-31.5 -99 t-16.5 -105l-21 -163q-17 -135 -92 -220.5t-199 -135.5q49 -26 85 -62.5t57.5 -80.5t30 -95t3.5 -106l-21 -164q-3 -25 -6.5 -57t-3.5 -64.5t4.5 -64t17 -57t35 -42.5t57.5 -20z" />
<glyph unicode="|" d="M529 -410h-171l292 1866h171z" />
<glyph unicode="}" d="M193 -203q58 1 95.5 32t61 77.5t35.5 100t18 99.5l21 163q17 131 88 216.5t190 136.5q-94 56 -133.5 148t-29.5 199l21 164q4 29 8.5 62.5t6 66t-2 63.5t-16.5 55t-37 40t-64 19l46 157q92 -4 154.5 -47t99 -109t48.5 -147t3 -161l-21 -164q-7 -59 0.5 -104.5t30.5 -76.5 t64 -48t101 -20l-20 -200q-126 -2 -199 -63t-91 -187l-22 -163q-12 -90 -44.5 -173t-86.5 -147t-129.5 -104t-172.5 -46z" />
<glyph unicode="~" d="M1128 753q-6 -70 -29.5 -138t-64.5 -121t-100.5 -85.5t-138.5 -31.5q-44 0 -82.5 10.5t-73 28.5t-66.5 42.5t-63 53.5q-17 16 -36.5 31.5t-41.5 27.5t-45.5 19.5t-47.5 7.5q-33 0 -59.5 -15t-46.5 -38t-33.5 -52t-19.5 -57l-172 21q6 70 29 136.5t64 118.5t100.5 83 t137.5 30q87 -1 157 -39t131 -95q17 -16 36 -31.5t40 -28t44 -19.5t48 -7q33 0 58.5 15.5t44.5 39.5t31.5 53t17.5 58z" />
<glyph unicode="&#xa0;" />
<glyph unicode="&#xa1;" d="M492 565h247l-149 -945h-279zM844 953q0 -34 -12.5 -63t-34 -50t-50.5 -33t-62 -12q-33 -1 -61.5 9.5t-49.5 30t-33.5 46.5t-12.5 60q0 34 11.5 63.5t33 51.5t50.5 34.5t64 13.5q33 1 61.5 -10.5t49.5 -31.5t33.5 -48t12.5 -61z" />
<glyph unicode="&#xa2;" d="M555 201q40 -1 76.5 10t66 32.5t50 53.5t26.5 72l254 2q-5 -83 -41 -150.5t-93 -117.5t-129.5 -80.5t-150.5 -39.5l-40 -228h-196l43 241q-84 22 -144.5 73t-97 121t-49.5 155t-4 177l3 31q12 103 50.5 196t100.5 166t145.5 121t185.5 61l39 221h196l-41 -230 q69 -17 124 -53.5t93 -89t56 -119.5t14 -145l-255 1q3 40 -6 75.5t-30 61.5t-53 41.5t-75 17.5q-69 2 -117.5 -27t-80.5 -76.5t-50 -106t-25 -115.5l-4 -30q-5 -48 -5 -104t15 -103.5t49.5 -80t99.5 -34.5z" />
<glyph unicode="&#xa3;" d="M541 585l-18 -152q-9 -63 -34 -114t-69 -96l654 3l-39 -226h-1025l40 225l75 -2q31 12 51.5 32.5t34 47t20.5 56.5t12 60l23 166h-158l39 221h151l30 234q12 99 54 180t108 138.5t152.5 88.5t186.5 29q94 -2 167 -32t122 -84t73 -129.5t20 -167.5l-263 1q2 39 -4.5 72.5 t-24 58t-46 39.5t-71.5 16q-45 1 -80 -16.5t-60 -47t-40.5 -67.5t-21.5 -78l-28 -235h301l-39 -221h-293z" />
<glyph unicode="&#xa4;" d="M800 76q-67 -45 -140.5 -71.5t-155.5 -24.5q-73 1 -141.5 25t-125.5 71l-118 -102l-120 155l122 101q-18 67 -24.5 135t1.5 137q11 85 44 160.5t87 143.5l-92 125l151 133l87 -115q65 39 134.5 62.5t145.5 22.5q70 -1 135 -23t121 -65l137 119l121 -156l-137 -114 q21 -69 28.5 -138.5t-1.5 -141.5q-10 -81 -40.5 -152t-78.5 -135l91 -121l-152 -134zM281 499q-8 -59 3.5 -117.5t41 -105.5t77 -77t113.5 -32q72 -2 134.5 27t110 78.5t78 113.5t39.5 131q7 58 -4 116t-40.5 104.5t-77.5 76.5t-113 32q-72 2 -134.5 -26.5t-110.5 -77.5 t-78.5 -112.5t-38.5 -130.5z" />
<glyph unicode="&#xa5;" d="M639 839l391 617h314l-496 -714h236l-29 -166h-320l-23 -124h322l-29 -165h-321l-50 -287h-274l50 287h-333l29 165h332l22 124h-333l29 166h268l-249 714h289z" />
<glyph unicode="&#xa6;" d="M322 -270l138 795h247l-138 -795h-247zM737 698h-247l131 758h247z" />
<glyph unicode="&#xa7;" d="M1112 483q-8 -101 -63.5 -169.5t-141.5 -115.5q52 -58 70.5 -127.5t12.5 -146.5q-5 -70 -30.5 -126t-65.5 -99t-92 -73t-111 -49t-122 -27.5t-125 -7.5q-101 1 -189.5 26t-153.5 76.5t-102 130t-34 188.5h275q-3 -53 13 -89.5t45.5 -59.5t70.5 -34t90 -11q39 -1 82 6 t80 24.5t63.5 47.5t34.5 75q5 31 -4.5 55.5t-29 43.5t-46 33t-55.5 25t-56.5 19t-49.5 15q-77 25 -152.5 57t-133 80t-90.5 115t-26 162q8 101 64 170t142 116q-52 59 -71 128t-13 147q5 70 31 126t66.5 99.5t93 74.5t112 51t122.5 29t125 8q101 -2 185.5 -29t144.5 -80.5 t92 -133.5t28 -186l-271 1q4 95 -47.5 148t-147.5 55q-41 1 -84 -6.5t-79.5 -26.5t-63.5 -50t-34 -77q-9 -51 13.5 -83t60 -53t82.5 -34t82 -24q78 -24 153.5 -56t133.5 -80t90.5 -115.5t25.5 -162.5zM601 663q-34 11 -67.5 22t-66.5 24q-48 -26 -76.5 -64t-37.5 -92 q-9 -52 11.5 -86t56.5 -56.5t80.5 -37t83.5 -27.5q34 -11 68 -21.5t67 -23.5q46 27 77.5 64.5t41.5 91.5q9 49 -14 83t-61 57.5t-82.5 38.5t-80.5 27z" />
<glyph unicode="&#xa8;" d="M376 1361q0 28 10.5 51.5t28.5 40.5t42 27t51 11q26 0 50 -8.5t42.5 -25t29.5 -39t11 -49.5q0 -28 -10.5 -51t-28.5 -40.5t-41.5 -27t-50.5 -10.5q-27 0 -51 8.5t-42.5 24.5t-29.5 38.5t-11 49.5zM842 1361q0 28 10 51t28 40.5t42 27t51 10.5q26 0 50 -8.5t42.5 -24.5 t30 -38.5t11.5 -49.5q0 -28 -10.5 -51.5t-28.5 -41t-42 -27.5t-51 -11q-27 0 -51 8.5t-42 25t-29 39.5t-11 50z" />
<glyph unicode="&#xa9;" d="M810 442q-6 -56 -26.5 -100t-53.5 -74.5t-78.5 -46.5t-103.5 -14q-61 1 -104.5 26t-71 64.5t-39 91t-8.5 107.5l8 90q6 59 27.5 112.5t57.5 93.5t86 63.5t114 22.5q112 -2 170 -65.5t53 -173.5l-115 1q1 31 -3.5 56t-17.5 43t-35.5 28t-56.5 10q-40 0 -69 -16.5 t-48.5 -43.5t-31 -61t-15.5 -69l-8 -92q-2 -31 1 -63.5t15 -59.5t35 -45t61 -19q34 -1 58.5 8t41.5 27t28 43t18 55zM168 534q-10 -85 9 -167t64.5 -147t115.5 -105.5t163 -42.5q99 -3 185 36.5t152.5 106.5t108.5 154.5t53 180.5q10 85 -9.5 166t-64.5 145.5t-115 104.5 t-161 42q-99 3 -185.5 -36t-153 -105t-109.5 -152.5t-53 -180.5zM77 534q8 75 33 147t65 135.5t93 117t116.5 91.5t136 58.5t151.5 18.5q74 -2 137 -24t114 -60.5t89.5 -90.5t62.5 -112.5t33.5 -128t2.5 -136.5q-8 -75 -33 -147t-64.5 -136t-93 -117.5t-117 -91.5t-136 -59 t-150.5 -19q-111 3 -197.5 50.5t-144 125t-83.5 176t-15 202.5z" />
<glyph unicode="&#xaa;" d="M767 704q-6 47 -3 94q-45 -51 -101 -79.5t-125 -27.5q-50 0 -91.5 15.5t-70.5 44t-44 69.5t-13 92q3 70 36.5 116.5t84.5 73.5t112.5 38t120.5 11l136 -1l8 53q3 25 0 47.5t-12.5 39.5t-28 27t-46.5 11q-54 2 -91.5 -22t-51.5 -76l-171 13q8 61 39 105.5t76 73.5t100 42 t112 12q62 -1 110.5 -21.5t80.5 -56.5t47 -86.5t9 -111.5l-50 -314q-8 -46 -9.5 -90.5t5.5 -91.5h-169zM591 833q26 0 52 7t50 20t45 30.5t37 38.5l18 104h-123q-27 -1 -56.5 -7.5t-54.5 -20.5t-42.5 -36t-20.5 -53q-3 -23 4 -39t20.5 -25.5t32 -14t38.5 -4.5z" />
<glyph unicode="&#xab;" d="M375 479l161 -386h-161l-214 389l2 20l334 390h193zM743 479l161 -386h-161l-214 389l2 20l334 390h193z" />
<glyph unicode="&#xac;" d="M951 374h-196l46 260h-617l31 171h811z" />
<glyph unicode="&#xad;" d="M1070 530h-809l39 225h810z" />
<glyph unicode="&#xae;" d="M76 534q7 75 32 146.5t65 135.5t93 117t116.5 91.5t136 59t151.5 18.5q111 -3 197.5 -50.5t143.5 -125t82.5 -176t15.5 -202.5q-8 -75 -33 -147t-64.5 -135.5t-92.5 -117t-116.5 -91.5t-136 -59t-151.5 -19q-74 2 -137.5 24.5t-114.5 61t-89.5 90.5t-62.5 113t-33 128.5 t-2 137.5zM167 533q-10 -85 9.5 -166.5t64.5 -146t115 -105t162 -42.5q99 -3 185.5 36t153 106t108.5 154t53 180q10 85 -9.5 166.5t-64.5 146t-115 104.5t-162 42q-99 3 -185.5 -36t-153 -105t-109 -153t-52.5 -181zM480 484l-40 -252h-112l100 637l198 -1q43 -1 83 -11.5 t70 -33t47 -57.5t14 -84q-2 -34 -16 -60t-35.5 -45.5t-48.5 -34t-56 -26.5l95 -284h-109l-74 252h-116zM495 585h106q21 1 42.5 6.5t39.5 17t30.5 28t16.5 40.5q5 28 -2 45.5t-22 27.5t-36 13.5t-45 4.5l-100 1z" />
<glyph unicode="&#xaf;" d="M1082 1292h-710l26 164h710z" />
<glyph unicode="&#xb0;" d="M451 1193q3 57 27.5 108.5t64 91t91 62.5t109.5 22q53 -1 96.5 -24t73.5 -60t45.5 -84.5t12.5 -97.5q-3 -56 -26.5 -107.5t-62 -90.5t-89 -61.5t-108.5 -21.5q-53 1 -97.5 23t-76 58t-47.5 83t-13 99zM593 1196q-2 -24 5 -45.5t21 -37.5t34 -25.5t44 -9.5q27 0 50 11 t40.5 29t28.5 41t14 49q3 23 -3 45t-18.5 39.5t-32 28t-44.5 10.5q-27 0 -51 -11.5t-43 -30.5t-30.5 -43t-14.5 -50z" />
<glyph unicode="&#xb1;" d="M763 933h321l-36 -232h-321l-58 -370h-239l58 370h-331l37 232h330l55 351h239zM908 0h-836l40 227h836z" />
<glyph unicode="&#xb2;" d="M918 667h-601l25 144l310 251q18 15 39.5 34t41 40t33.5 44.5t19 48.5q7 38 -12 59.5t-56 21.5q-27 0 -47.5 -9t-36 -25t-25.5 -36.5t-15 -44.5l-198 -1q5 64 31.5 115t69 87t98 55t118.5 18q56 -1 107 -15.5t90 -44t61 -74.5t19 -107q-2 -54 -26 -98.5t-60 -82 t-78.5 -69t-82.5 -59.5l-132 -91l336 -2z" />
<glyph unicode="&#xb3;" d="M585 1135h82q23 1 45.5 7t41.5 17.5t32 29t17 43.5q3 19 -2.5 33t-17.5 23t-28 13.5t-33 4.5q-37 0 -66 -15t-44 -49l-202 -1q5 60 32.5 103t69.5 70.5t94.5 40.5t108.5 13q50 -1 102 -13t93.5 -38t67 -67.5t22.5 -101.5q-2 -36 -15.5 -64.5t-35 -50t-49.5 -38.5t-59 -31 q59 -20 88 -64t27 -106q-2 -66 -33.5 -112t-80.5 -74.5t-108.5 -41t-115.5 -11.5q-58 1 -109 16.5t-89.5 46t-61.5 76.5t-23 108l192 -1q3 -45 31.5 -64.5t73.5 -19.5q22 0 44.5 6t41 17.5t31 29.5t16.5 42q4 26 -2.5 42.5t-21 26t-34.5 13.5t-41 5h-92z" />
<glyph unicode="&#xb4;" d="M682 1478h314l-313 -279h-227z" />
<glyph unicode="&#xb5;" d="M521 1082l-102 -622q-5 -42 -6 -86.5t10 -81t39 -61t82 -25.5q70 -2 125 25t98 81l135 770h272l-188 -1082h-242l9 72q-51 -45 -108 -69t-126 -24q-95 0 -173 50l-85 -445h-271l260 1498h271z" />
<glyph unicode="&#xb6;" d="M663 0l90 520l-65 1q-101 3 -181.5 37t-134.5 94.5t-79 144.5t-16 185q10 110 55.5 198t118 149.5t167.5 94.5t203 33l305 -1l-252 -1456h-211z" />
<glyph unicode="&#xb7;" d="M497 696q0 33 11.5 61.5t32 49.5t49 33t61.5 12q32 1 59.5 -9.5t48.5 -30t33 -46.5t12 -60t-11.5 -61.5t-32.5 -49t-49 -32.5t-61 -12q-32 -1 -60 9.5t-48.5 29.5t-32.5 46t-12 60z" />
<glyph unicode="&#xb8;" d="M547 5l-21 -59q62 -14 92.5 -57t29.5 -106q-1 -48 -17 -85t-43.5 -63.5t-63.5 -44.5t-76.5 -29t-82.5 -16.5t-81 -6.5l6 164q22 1 44 6t40.5 15t31.5 26.5t18 42.5q4 26 -8 40t-32 20.5t-43.5 8t-40.5 3.5l44 140z" />
<glyph unicode="&#xb9;" d="M772 659h-195l95 549l-193 -42l29 163l369 116h24z" />
<glyph unicode="&#xba;" d="M347 1140q9 75 41.5 137.5t82.5 107.5t116 69t143 22q73 -2 130 -28t95.5 -70.5t56 -105t10.5 -131.5l-13 -117q-9 -75 -41.5 -137.5t-82.5 -107t-116 -68t-142 -21.5q-72 2 -129.5 27.5t-96 70t-56 105t-11.5 131.5zM509 1021q-3 -36 3 -69.5t22 -59t43 -41.5t68 -17 q42 -1 75.5 14t57.5 41t38.5 60.5t19.5 73.5l13 119q3 36 -2.5 69.5t-22 59.5t-44.5 41.5t-68 16.5q-42 1 -75.5 -13.5t-57.5 -40.5t-38.5 -60.5t-19.5 -73.5z" />
<glyph unicode="&#xbb;" d="M445 926l214 -388l-1 -20l-335 -391h-192l313 412l-160 387h161zM810 926l214 -388l-1 -20l-335 -391h-192l313 412l-160 387h161z" />
<glyph unicode="&#xbc;" d="M452.915 676h-175.505l85.5029 494.113l-173.705 -37.8008l26.1006 146.704l332.109 104.402h21.6006zM358 237l-126 73l651 928l127 -73zM975.818 289.808l87.3027 0.900391l-27.9004 -146.704h-78.3027l-26.1006 -144.004h-177.305l25.2012 144.004h-301.509 l11.7002 128.703l380.711 435.612v4.5l179.104 -2.7002zM668.91 290.708h134.104l42.3018 196.205l-14.4004 -19.8008z" />
<glyph unicode="&#xbd;" d="M291 237l-126 73l651 928l127 -73zM417.915 677h-175.505l85.5029 494.113l-173.705 -37.8008l26.1006 146.704l332.109 104.402h21.6006zM1041.82 0h-540.914l22.5 129.604l279.008 225.906q16.2002 13.5 35.5508 30.6006t36.9014 36.001t30.1504 40.0508 q12.6006 21.1514 17.1006 43.6514q6.2998 34.2012 -10.7998 53.5518q-17.1006 19.3506 -50.4014 19.3506q-24.3008 0 -42.752 -8.10059q-18.4502 -8.09961 -32.4004 -22.5t-22.9502 -32.8516q-9.00098 -18.4502 -13.501 -40.0508l-178.205 -0.900391 q4.50098 57.6016 28.3516 103.503t62.1016 78.3027q38.251 32.4004 88.2021 49.501t106.652 16.2002q50.4023 -0.899414 96.3027 -13.9502q45.9014 -13.0508 81.0029 -39.6006q35.1006 -26.5508 54.9014 -67.0518q19.8008 -40.502 17.1006 -96.3027 q-1.80078 -48.6016 -23.4014 -88.6523q-21.6006 -40.0518 -54.001 -73.8027q-32.4014 -33.751 -70.6523 -62.1016t-74.252 -53.5508l-118.803 -81.9023l302.408 -1.80078z" />
<glyph unicode="&#xbe;" d="M439 237l-126 73l651 928l127 -73zM1017.82 289.808l87.3027 0.900391l-27.9004 -146.704h-78.3027l-26.1006 -144.004h-177.305l25.2012 144.004h-301.509l11.7002 128.703l380.711 435.612v4.5l179.104 -2.7002zM710.91 290.708h134.104l42.3018 196.205 l-14.4004 -19.8008zM338.512 1092.11h73.8018q20.7002 0.900391 40.9512 6.30078q20.251 5.39941 37.3506 15.75q17.1006 10.3506 28.8008 26.1006q11.7012 15.751 15.3008 39.1514q2.7002 17.1006 -2.25 29.7002q-4.9502 12.6006 -15.75 20.7012 q-10.8008 8.09961 -25.2012 12.1504q-14.4004 4.0498 -29.7012 4.0498q-33.3008 0 -59.4014 -13.5q-26.1006 -13.501 -39.6006 -44.1016l-181.805 -0.900391q4.5 54.002 29.25 92.7031q24.751 38.7012 62.5518 63.4512q37.8018 24.751 85.0527 36.4512t97.6523 11.7002 q45.001 -0.899414 91.8027 -11.7002q46.8008 -10.7998 84.1523 -34.2012q37.3506 -23.4004 60.3018 -60.751q22.9502 -37.3516 20.25 -91.3525q-1.7998 -32.4014 -13.9502 -58.0518t-31.501 -45.001t-44.5508 -34.6514q-25.2012 -15.2998 -53.1016 -27.9004 q53.1016 -18.001 79.2021 -57.6016q26.1006 -39.6016 24.3008 -95.4033q-1.7998 -59.4014 -30.1514 -100.803q-28.3506 -41.4004 -72.4512 -67.0518q-44.1016 -25.6504 -97.6533 -36.9004q-53.5518 -11.251 -103.952 -10.3506q-52.2021 0.900391 -98.1035 14.8506 q-45.9004 13.9502 -80.5518 41.4014q-34.6514 27.4502 -55.3516 68.8516t-20.7002 97.2031l172.805 -0.900391q2.69922 -40.501 28.3506 -58.0518q25.6504 -17.5508 66.1514 -17.5508q19.8008 0 40.0518 5.40039q20.25 5.40039 36.9004 15.751 q16.6504 10.3496 27.9014 26.5508q11.25 16.2002 14.8496 37.8008q3.60059 23.4004 -2.25 38.251q-5.84961 14.8506 -18.9004 23.4004q-13.0498 8.5498 -31.0508 12.1504q-18 3.60059 -36.9004 4.5h-82.8027z" />
<glyph unicode="&#xbf;" d="M765 640q-5 -60 -13.5 -106.5t-26 -86t-47 -75t-77.5 -73.5q-35 -28 -73 -62.5t-71 -74t-56.5 -83t-30.5 -90.5q-9 -67 20 -111t100 -46q82 -2 130 46t64 124l271 1q-9 -98 -49.5 -172.5t-104.5 -125t-147.5 -75.5t-178.5 -23q-88 2 -161.5 27.5t-125.5 73.5t-78 118.5 t-18 163.5q6 74 36.5 135t75.5 113.5t99.5 98t107.5 88.5q29 24 49 46.5t33 48t20.5 54.5t13.5 65zM581 938q0 61 32.5 99t95.5 40q62 2 97 -34t35 -97q1 -60 -34.5 -94t-95.5 -36q-59 -2 -94 30t-36 92z" />
<glyph unicode="&#xc0;" d="M774 304h-423l-136 -304h-297l715 1456h249l202 -1456h-281zM460 543h291l-51 533zM883 1547h-198l-213 279h282z" />
<glyph unicode="&#xc1;" d="M774 304h-423l-136 -304h-297l715 1456h249l202 -1456h-281zM460 543h291l-51 533zM883 1823h314l-313 -279h-227z" />
<glyph unicode="&#xc2;" d="M774 304h-423l-136 -304h-297l715 1456h249l202 -1456h-281zM460 543h291l-51 533zM1156 1623l-2 -30l-209 1l-126 126l-171 -125l-219 -2l2 32l313 240h155z" />
<glyph unicode="&#xc3;" d="M774 304h-423l-136 -304h-297l715 1456h249l202 -1456h-281zM460 543h291l-51 533zM1174 1864q-3 -46 -19 -90.5t-44 -80t-68 -57t-91 -21.5q-38 0 -71 14.5t-65 31.5t-64.5 31t-69.5 13q-45 -1 -69.5 -30t-35.5 -68l-134 29q4 45 21 89.5t45.5 80t69 57t90.5 21.5 q37 0 70.5 -14.5t65.5 -31.5t64.5 -31t69.5 -13q45 1 70 29.5t36 67.5z" />
<glyph unicode="&#xc4;" d="M774 304h-423l-136 -304h-297l715 1456h249l202 -1456h-281zM460 543h291l-51 533zM434 1710q0 28 10.5 51.5t28.5 40.5t42 27t51 11q26 0 50 -8.5t42.5 -25t29.5 -39t11 -49.5q0 -28 -10.5 -51t-28.5 -40.5t-41.5 -27t-50.5 -10.5q-27 0 -51 8.5t-42.5 24.5t-29.5 38.5 t-11 49.5zM900 1710q0 28 10 51t28 40.5t42 27t51 10.5q26 0 50 -8.5t42.5 -24.5t30 -38.5t11.5 -49.5q0 -28 -10.5 -51.5t-28.5 -41t-42 -27.5t-51 -11q-27 0 -51 8.5t-42 25t-29 39.5t-11 50z" />
<glyph unicode="&#xc5;" d="M774 304h-423l-136 -304h-297l715 1456h249l202 -1456h-281zM460 543h291l-51 533zM604 1724q1 44 20 82t49.5 65.5t70 42.5t82.5 15q40 0 74.5 -14.5t60 -40t40 -60t13.5 -74.5q-2 -44 -20 -81t-47.5 -64t-68 -41.5t-81.5 -14.5q-40 0 -75.5 13.5t-62 38t-41.5 58.5 t-14 75zM716 1727q-4 -38 18.5 -65.5t61.5 -27.5q21 0 39.5 8.5t32.5 22.5t23 33t11 39q2 18 -2 35.5t-13.5 30.5t-25 21t-35.5 8q-21 0 -40 -8.5t-34 -23t-24.5 -33.5t-11.5 -40z" />
<glyph unicode="&#xc6;" d="M1039 0h-522l58 334h-204l-150 -334h-284l718 1456h616l-40 -228h-240l-64 -366h211l-40 -227h-210l-71 -409h261zM616 574l90 512l-230 -512h140z" />
<glyph unicode="&#xc7;" d="M1075 457q-15 -110 -64 -199t-124 -152t-172 -96.5t-207 -30.5q-89 2 -158 29.5t-119.5 74t-83.5 109t-50.5 134t-20 149t7.5 154.5l29 196q12 81 37.5 162t63.5 154t89.5 135.5t116.5 107.5t143.5 70t170.5 23q112 -2 195 -39.5t137.5 -102.5t82.5 -154t31 -195l-272 1 q0 53 -7.5 100t-29 82t-59.5 56.5t-98 23.5q-57 2 -101 -16.5t-77.5 -50t-58 -74.5t-41.5 -90.5t-28 -96.5t-17 -94l-28 -199q-5 -37 -9 -82t-3.5 -91t8.5 -90t28 -78.5t54 -56t87 -23.5q60 -3 107 15t81 51t56 79.5t33 102.5zM598 10l-21 -59q62 -14 92.5 -57t29.5 -106 q-1 -48 -17 -85t-43.5 -63.5t-63.5 -44.5t-76.5 -29t-82.5 -16.5t-81 -6.5l6 164q22 1 44 6t40.5 15t31.5 26.5t18 42.5q4 26 -8 40t-32 20.5t-43.5 8t-40.5 3.5l44 140z" />
<glyph unicode="&#xc8;" d="M1004 638h-580l-72 -411h679l-40 -227h-953l253 1456h950l-40 -229h-675l-64 -367h581zM890 1538h-198l-213 279h282z" />
<glyph unicode="&#xc9;" d="M1004 638h-580l-72 -411h679l-40 -227h-953l253 1456h950l-40 -229h-675l-64 -367h581zM890 1814h314l-313 -279h-227z" />
<glyph unicode="&#xca;" d="M1004 638h-580l-72 -411h679l-40 -227h-953l253 1456h950l-40 -229h-675l-64 -367h581zM1163 1614l-2 -30l-209 1l-126 126l-171 -125l-219 -2l2 32l313 240h155z" />
<glyph unicode="&#xcb;" d="M1004 638h-580l-72 -411h679l-40 -227h-953l253 1456h950l-40 -229h-675l-64 -367h581zM441 1701q0 28 10.5 51.5t28.5 40.5t42 27t51 11q26 0 50 -8.5t42.5 -25t29.5 -39t11 -49.5q0 -28 -10.5 -51t-28.5 -40.5t-41.5 -27t-50.5 -10.5q-27 0 -51 8.5t-42.5 24.5 t-29.5 38.5t-11 49.5zM907 1701q0 28 10 51t28 40.5t42 27t51 10.5q26 0 50 -8.5t42.5 -24.5t30 -38.5t11.5 -49.5q0 -28 -10.5 -51.5t-28.5 -41t-42 -27.5t-51 -11q-27 0 -51 8.5t-42 25t-29 39.5t-11 50z" />
<glyph unicode="&#xcc;" d="M335 1456h819l-40 -227h-275l-174 -1003h276l-40 -226h-819l40 226h268l174 1003h-269zM851 1547h-198l-213 279h282z" />
<glyph unicode="&#xcd;" d="M335 1456h819l-40 -227h-275l-174 -1003h276l-40 -226h-819l40 226h268l174 1003h-269zM851 1823h314l-313 -279h-227z" />
<glyph unicode="&#xce;" d="M335 1456h819l-40 -227h-275l-174 -1003h276l-40 -226h-819l40 226h268l174 1003h-269zM1124 1623l-2 -30l-209 1l-126 126l-171 -125l-219 -2l2 32l313 240h155z" />
<glyph unicode="&#xcf;" d="M335 1456h819l-40 -227h-275l-174 -1003h276l-40 -226h-819l40 226h268l174 1003h-269zM402 1710q0 28 10.5 51.5t28.5 40.5t42 27t51 11q26 0 50 -8.5t42.5 -25t29.5 -39t11 -49.5q0 -28 -10.5 -51t-28.5 -40.5t-41.5 -27t-50.5 -10.5q-27 0 -51 8.5t-42.5 24.5 t-29.5 38.5t-11 49.5zM868 1710q0 28 10 51t28 40.5t42 27t51 10.5q26 0 50 -8.5t42.5 -24.5t30 -38.5t11.5 -49.5q0 -28 -10.5 -51.5t-28.5 -41t-42 -27.5t-51 -11q-27 0 -51 8.5t-42 25t-29 39.5t-11 50z" />
<glyph unicode="&#xd0;" horiz-adv-x="1232" d="M47 0l111 643h-177l32 180h176l110 633l352 -1q141 -3 245 -58.5t170 -147t91.5 -211t9.5 -251.5l-17 -120q-20 -137 -79 -259t-150.5 -212.5t-213 -143.5t-266.5 -52h-394zM654 643h-220l-72 -417l91 -2q95 0 167 37.5t123 99t82.5 141.5t44.5 165l17 123q6 48 6.5 98.5 t-7 98.5t-25 90.5t-47 75t-72.5 52t-102 22.5l-104 1l-71 -405h221z" />
<glyph unicode="&#xd1;" d="M955 0h-267l-232 949l-165 -949h-276l252 1456h271l229 -945l166 945h275zM1154 1864q-3 -46 -19 -90.5t-44 -80t-68 -57t-91 -21.5q-38 0 -71 14.5t-65 31.5t-64.5 31t-69.5 13q-45 -1 -69.5 -30t-35.5 -68l-134 29q4 45 21 89.5t45.5 80t69 57t90.5 21.5 q37 0 70.5 -14.5t65.5 -31.5t64.5 -31t69.5 -13q45 1 70 29.5t36 67.5z" />
<glyph unicode="&#xd2;" d="M1119 622q-13 -81 -38 -161t-63.5 -152t-90 -133.5t-116.5 -105.5t-143 -68t-170 -22q-87 2 -154.5 29.5t-117 74t-81.5 108t-49 132t-20 146.5t7 151l33 212q12 80 36.5 159.5t61 151.5t86.5 134t113 106.5t140 69t168 22.5q88 -2 156.5 -29t120 -73.5t85.5 -108 t52.5 -132t22.5 -147.5t-6 -153zM874 836q5 37 8 81t0.5 88.5t-12.5 86.5t-31 75t-55 54t-85 23q-55 2 -97 -15.5t-73.5 -49t-54.5 -73t-38.5 -87.5t-25.5 -93.5t-16 -90.5l-33 -215q-5 -35 -8.5 -78t-3 -88t8.5 -88t27 -77t51.5 -55.5t83.5 -23.5q54 -2 97 15.5t76.5 48.5 t58.5 73t42.5 88.5t28.5 94.5t18 91zM869 1568h-198l-213 279h282z" />
<glyph unicode="&#xd3;" d="M1119 622q-13 -81 -38 -161t-63.5 -152t-90 -133.5t-116.5 -105.5t-143 -68t-170 -22q-87 2 -154.5 29.5t-117 74t-81.5 108t-49 132t-20 146.5t7 151l33 212q12 80 36.5 159.5t61 151.5t86.5 134t113 106.5t140 69t168 22.5q88 -2 156.5 -29t120 -73.5t85.5 -108 t52.5 -132t22.5 -147.5t-6 -153zM874 836q5 37 8 81t0.5 88.5t-12.5 86.5t-31 75t-55 54t-85 23q-55 2 -97 -15.5t-73.5 -49t-54.5 -73t-38.5 -87.5t-25.5 -93.5t-16 -90.5l-33 -215q-5 -35 -8.5 -78t-3 -88t8.5 -88t27 -77t51.5 -55.5t83.5 -23.5q54 -2 97 15.5t76.5 48.5 t58.5 73t42.5 88.5t28.5 94.5t18 91zM869 1844h314l-313 -279h-227z" />
<glyph unicode="&#xd4;" d="M1119 622q-13 -81 -38 -161t-63.5 -152t-90 -133.5t-116.5 -105.5t-143 -68t-170 -22q-87 2 -154.5 29.5t-117 74t-81.5 108t-49 132t-20 146.5t7 151l33 212q12 80 36.5 159.5t61 151.5t86.5 134t113 106.5t140 69t168 22.5q88 -2 156.5 -29t120 -73.5t85.5 -108 t52.5 -132t22.5 -147.5t-6 -153zM874 836q5 37 8 81t0.5 88.5t-12.5 86.5t-31 75t-55 54t-85 23q-55 2 -97 -15.5t-73.5 -49t-54.5 -73t-38.5 -87.5t-25.5 -93.5t-16 -90.5l-33 -215q-5 -35 -8.5 -78t-3 -88t8.5 -88t27 -77t51.5 -55.5t83.5 -23.5q54 -2 97 15.5t76.5 48.5 t58.5 73t42.5 88.5t28.5 94.5t18 91zM1142 1644l-2 -30l-209 1l-126 126l-171 -125l-219 -2l2 32l313 240h155z" />
<glyph unicode="&#xd5;" d="M1119 622q-13 -81 -38 -161t-63.5 -152t-90 -133.5t-116.5 -105.5t-143 -68t-170 -22q-87 2 -154.5 29.5t-117 74t-81.5 108t-49 132t-20 146.5t7 151l33 212q12 80 36.5 159.5t61 151.5t86.5 134t113 106.5t140 69t168 22.5q88 -2 156.5 -29t120 -73.5t85.5 -108 t52.5 -132t22.5 -147.5t-6 -153zM874 836q5 37 8 81t0.5 88.5t-12.5 86.5t-31 75t-55 54t-85 23q-55 2 -97 -15.5t-73.5 -49t-54.5 -73t-38.5 -87.5t-25.5 -93.5t-16 -90.5l-33 -215q-5 -35 -8.5 -78t-3 -88t8.5 -88t27 -77t51.5 -55.5t83.5 -23.5q54 -2 97 15.5t76.5 48.5 t58.5 73t42.5 88.5t28.5 94.5t18 91zM1160 1885q-3 -46 -19 -90.5t-44 -80t-68 -57t-91 -21.5q-38 0 -71 14.5t-65 31.5t-64.5 31t-69.5 13q-45 -1 -69.5 -30t-35.5 -68l-134 29q4 45 21 89.5t45.5 80t69 57t90.5 21.5q37 0 70.5 -14.5t65.5 -31.5t64.5 -31t69.5 -13 q45 1 70 29.5t36 67.5z" />
<glyph unicode="&#xd6;" d="M1119 622q-13 -81 -38 -161t-63.5 -152t-90 -133.5t-116.5 -105.5t-143 -68t-170 -22q-87 2 -154.5 29.5t-117 74t-81.5 108t-49 132t-20 146.5t7 151l33 212q12 80 36.5 159.5t61 151.5t86.5 134t113 106.5t140 69t168 22.5q88 -2 156.5 -29t120 -73.5t85.5 -108 t52.5 -132t22.5 -147.5t-6 -153zM874 836q5 37 8 81t0.5 88.5t-12.5 86.5t-31 75t-55 54t-85 23q-55 2 -97 -15.5t-73.5 -49t-54.5 -73t-38.5 -87.5t-25.5 -93.5t-16 -90.5l-33 -215q-5 -35 -8.5 -78t-3 -88t8.5 -88t27 -77t51.5 -55.5t83.5 -23.5q54 -2 97 15.5t76.5 48.5 t58.5 73t42.5 88.5t28.5 94.5t18 91zM420 1731q0 28 10.5 51.5t28.5 40.5t42 27t51 11q26 0 50 -8.5t42.5 -25t29.5 -39t11 -49.5q0 -28 -10.5 -51t-28.5 -40.5t-41.5 -27t-50.5 -10.5q-27 0 -51 8.5t-42.5 24.5t-29.5 38.5t-11 49.5zM886 1731q0 28 10 51t28 40.5t42 27 t51 10.5q26 0 50 -8.5t42.5 -24.5t30 -38.5t11.5 -49.5q0 -28 -10.5 -51.5t-28.5 -41t-42 -27.5t-51 -11q-27 0 -51 8.5t-42 25t-29 39.5t-11 50z" />
<glyph unicode="&#xd7;" d="M114 382l355 314l-246 316l178 153l243 -312l352 312l141 -174l-355 -315l246 -316l-178 -153l-243 312l-352 -312z" />
<glyph unicode="&#xd8;" d="M1124 622q-13 -81 -38 -161t-63.5 -152t-90 -133.5t-116.5 -105.5t-143 -68t-170 -22q-86 2 -151.5 27.5t-115.5 70.5l-125 -173h-193l221 307q-42 90 -53.5 196.5t2.5 212.5l33 212q12 80 36.5 159.5t61 151.5t86.5 134t113 106.5t140 69t168 22.5q81 -2 145.5 -25.5 t115.5 -64.5l95 132h194l-186 -257q25 -45 41.5 -96.5t24.5 -106.5t8 -112t-7 -113zM879 836q4 32 7 69t2 76l-499 -691q20 -35 52.5 -56.5t83.5 -23.5q54 -2 97 15.5t76.5 48.5t58.5 73t42.5 88.5t28.5 94.5t18 91zM366 620q-3 -24 -6 -51.5t-5 -57.5l481 667 q-21 29 -53 46.5t-79 19.5q-55 2 -97 -15.5t-73.5 -49t-54.5 -73t-38.5 -87.5t-25.5 -93.5t-16 -90.5z" />
<glyph unicode="&#xd9;" d="M1217 1456l-163 -964q-17 -113 -61 -208t-114 -163.5t-165.5 -106t-214.5 -34.5q-110 2 -189.5 43.5t-128.5 111t-68 161.5t-7 194l165 966h274l-162 -966q-5 -43 -4.5 -91.5t14 -90.5t44 -70.5t86.5 -31.5q62 -3 107 21.5t75.5 65.5t48.5 93t26 104l165 966h272z M873 1544h-198l-213 279h282z" />
<glyph unicode="&#xda;" d="M1217 1456l-163 -964q-17 -113 -61 -208t-114 -163.5t-165.5 -106t-214.5 -34.5q-110 2 -189.5 43.5t-128.5 111t-68 161.5t-7 194l165 966h274l-162 -966q-5 -43 -4.5 -91.5t14 -90.5t44 -70.5t86.5 -31.5q62 -3 107 21.5t75.5 65.5t48.5 93t26 104l165 966h272z M873 1820h314l-313 -279h-227z" />
<glyph unicode="&#xdb;" d="M1217 1456l-163 -964q-17 -113 -61 -208t-114 -163.5t-165.5 -106t-214.5 -34.5q-110 2 -189.5 43.5t-128.5 111t-68 161.5t-7 194l165 966h274l-162 -966q-5 -43 -4.5 -91.5t14 -90.5t44 -70.5t86.5 -31.5q62 -3 107 21.5t75.5 65.5t48.5 93t26 104l165 966h272z M1146 1620l-2 -30l-209 1l-126 126l-171 -125l-219 -2l2 32l313 240h155z" />
<glyph unicode="&#xdc;" d="M1217 1456l-163 -964q-17 -113 -61 -208t-114 -163.5t-165.5 -106t-214.5 -34.5q-110 2 -189.5 43.5t-128.5 111t-68 161.5t-7 194l165 966h274l-162 -966q-5 -43 -4.5 -91.5t14 -90.5t44 -70.5t86.5 -31.5q62 -3 107 21.5t75.5 65.5t48.5 93t26 104l165 966h272z M424 1707q0 28 10.5 51.5t28.5 40.5t42 27t51 11q26 0 50 -8.5t42.5 -25t29.5 -39t11 -49.5q0 -28 -10.5 -51t-28.5 -40.5t-41.5 -27t-50.5 -10.5q-27 0 -51 8.5t-42.5 24.5t-29.5 38.5t-11 49.5zM890 1707q0 28 10 51t28 40.5t42 27t51 10.5q26 0 50 -8.5t42.5 -24.5 t30 -38.5t11.5 -49.5q0 -28 -10.5 -51.5t-28.5 -41t-42 -27.5t-51 -11q-27 0 -51 8.5t-42 25t-29 39.5t-11 50z" />
<glyph unicode="&#xdd;" d="M636 787l394 669h313l-618 -965l-86 -491h-273l91 530l-271 926h288zM877 1823h314l-313 -279h-227z" />
<glyph unicode="&#xde;" d="M552 1456l-47 -271l205 -1q99 -2 185 -31t148.5 -84.5t95.5 -136.5t24 -187q-10 -116 -61.5 -201.5t-130.5 -142.5t-179.5 -85t-207.5 -28l-234 1l-51 -289h-272l253 1456h272zM466 961l-78 -448l207 -2q55 1 105 15.5t90 44t66.5 72.5t34.5 101q7 49 -4 88.5t-36.5 67 t-64 43t-87.5 17.5z" />
<glyph unicode="&#xdf;" d="M323 0h-271l184 1076q15 104 56 194t107 156t156 102.5t201 33.5q78 -2 142.5 -28t110 -73t68 -112t16.5 -145q-5 -57 -27 -103.5t-49 -90.5t-52 -88.5t-35 -98.5q-7 -39 4 -76.5t31 -74t45 -73.5t46.5 -75.5t35 -79.5t10.5 -85q-6 -92 -40.5 -163.5t-92 -120.5t-134 -74 t-166.5 -24q-70 1 -143 13.5t-135 48.5l77 219q46 -28 100.5 -43.5t108.5 -13.5q66 2 107 45t51 106q7 41 -5 78.5t-33 73t-47 71t-47.5 72.5t-35 77.5t-9.5 87.5q4 55 27.5 101t51 89.5t51.5 88.5t30 99q3 26 -1.5 52.5t-17 48t-33.5 35.5t-51 16q-53 3 -90.5 -23t-62 -67 t-38.5 -89t-20 -90z" />
<glyph unicode="&#xe0;" d="M700 0q-8 26 -9.5 50.5t-0.5 50.5q-63 -59 -137.5 -90.5t-162.5 -30.5q-68 1 -129.5 23.5t-107 63t-70.5 98.5t-22 130t27.5 127t64.5 96t92 68.5t111 44.5t121.5 24t123.5 7l156 -2l13 67q6 39 -2.5 70t-29 52.5t-51.5 33t-70 12.5q-70 2 -117 -31.5t-61 -102.5l-271 -2 q6 90 51 155.5t113 108t150.5 62t163.5 18.5q85 -2 161 -27t131.5 -72.5t84 -117.5t19.5 -163l-75 -465q-9 -59 -13.5 -120.5t16.5 -119.5l-1 -18h-269zM461 194q71 -2 133.5 29t107.5 85l34 187l-123 1q-45 0 -91 -9t-85 -29.5t-66 -54.5t-34 -86q-4 -31 4 -54t25 -38 t41.5 -23t53.5 -8zM791 1225h-198l-213 279h282z" />
<glyph unicode="&#xe1;" d="M700 0q-8 26 -9.5 50.5t-0.5 50.5q-63 -59 -137.5 -90.5t-162.5 -30.5q-68 1 -129.5 23.5t-107 63t-70.5 98.5t-22 130t27.5 127t64.5 96t92 68.5t111 44.5t121.5 24t123.5 7l156 -2l13 67q6 39 -2.5 70t-29 52.5t-51.5 33t-70 12.5q-70 2 -117 -31.5t-61 -102.5l-271 -2 q6 90 51 155.5t113 108t150.5 62t163.5 18.5q85 -2 161 -27t131.5 -72.5t84 -117.5t19.5 -163l-75 -465q-9 -59 -13.5 -120.5t16.5 -119.5l-1 -18h-269zM461 194q71 -2 133.5 29t107.5 85l34 187l-123 1q-45 0 -91 -9t-85 -29.5t-66 -54.5t-34 -86q-4 -31 4 -54t25 -38 t41.5 -23t53.5 -8zM791 1501h314l-313 -279h-227z" />
<glyph unicode="&#xe2;" d="M700 0q-8 26 -9.5 50.5t-0.5 50.5q-63 -59 -137.5 -90.5t-162.5 -30.5q-68 1 -129.5 23.5t-107 63t-70.5 98.5t-22 130t27.5 127t64.5 96t92 68.5t111 44.5t121.5 24t123.5 7l156 -2l13 67q6 39 -2.5 70t-29 52.5t-51.5 33t-70 12.5q-70 2 -117 -31.5t-61 -102.5l-271 -2 q6 90 51 155.5t113 108t150.5 62t163.5 18.5q85 -2 161 -27t131.5 -72.5t84 -117.5t19.5 -163l-75 -465q-9 -59 -13.5 -120.5t16.5 -119.5l-1 -18h-269zM461 194q71 -2 133.5 29t107.5 85l34 187l-123 1q-45 0 -91 -9t-85 -29.5t-66 -54.5t-34 -86q-4 -31 4 -54t25 -38 t41.5 -23t53.5 -8zM1064 1301l-2 -30l-209 1l-126 126l-171 -125l-219 -2l2 32l313 240h155z" />
<glyph unicode="&#xe3;" d="M700 0q-8 26 -9.5 50.5t-0.5 50.5q-63 -59 -137.5 -90.5t-162.5 -30.5q-68 1 -129.5 23.5t-107 63t-70.5 98.5t-22 130t27.5 127t64.5 96t92 68.5t111 44.5t121.5 24t123.5 7l156 -2l13 67q6 39 -2.5 70t-29 52.5t-51.5 33t-70 12.5q-70 2 -117 -31.5t-61 -102.5l-271 -2 q6 90 51 155.5t113 108t150.5 62t163.5 18.5q85 -2 161 -27t131.5 -72.5t84 -117.5t19.5 -163l-75 -465q-9 -59 -13.5 -120.5t16.5 -119.5l-1 -18h-269zM461 194q71 -2 133.5 29t107.5 85l34 187l-123 1q-45 0 -91 -9t-85 -29.5t-66 -54.5t-34 -86q-4 -31 4 -54t25 -38 t41.5 -23t53.5 -8zM1082 1542q-3 -46 -19 -90.5t-44 -80t-68 -57t-91 -21.5q-38 0 -71 14.5t-65 31.5t-64.5 31t-69.5 13q-45 -1 -69.5 -30t-35.5 -68l-134 29q4 45 21 89.5t45.5 80t69 57t90.5 21.5q37 0 70.5 -14.5t65.5 -31.5t64.5 -31t69.5 -13q45 1 70 29.5t36 67.5z " />
<glyph unicode="&#xe4;" d="M700 0q-8 26 -9.5 50.5t-0.5 50.5q-63 -59 -137.5 -90.5t-162.5 -30.5q-68 1 -129.5 23.5t-107 63t-70.5 98.5t-22 130t27.5 127t64.5 96t92 68.5t111 44.5t121.5 24t123.5 7l156 -2l13 67q6 39 -2.5 70t-29 52.5t-51.5 33t-70 12.5q-70 2 -117 -31.5t-61 -102.5l-271 -2 q6 90 51 155.5t113 108t150.5 62t163.5 18.5q85 -2 161 -27t131.5 -72.5t84 -117.5t19.5 -163l-75 -465q-9 -59 -13.5 -120.5t16.5 -119.5l-1 -18h-269zM461 194q71 -2 133.5 29t107.5 85l34 187l-123 1q-45 0 -91 -9t-85 -29.5t-66 -54.5t-34 -86q-4 -31 4 -54t25 -38 t41.5 -23t53.5 -8zM343 1388q0 28 10.5 51.5t28.5 40.5t42 27t51 11q26 0 50 -8.5t42.5 -25t29.5 -39t11 -49.5q0 -28 -10.5 -51t-28.5 -40.5t-41.5 -27t-50.5 -10.5q-27 0 -51 8.5t-42.5 24.5t-29.5 38.5t-11 49.5zM809 1388q0 28 10 51t28 40.5t42 27t51 10.5 q26 0 50 -8.5t42.5 -24.5t30 -38.5t11.5 -49.5q0 -28 -10.5 -51.5t-28.5 -41t-42 -27.5t-51 -11q-27 0 -51 8.5t-42 25t-29 39.5t-11 50z" />
<glyph unicode="&#xe5;" d="M700 0q-8 26 -9.5 50.5t-0.5 50.5q-63 -59 -137.5 -90.5t-162.5 -30.5q-68 1 -129.5 23.5t-107 63t-70.5 98.5t-22 130t27.5 127t64.5 96t92 68.5t111 44.5t121.5 24t123.5 7l156 -2l13 67q6 39 -2.5 70t-29 52.5t-51.5 33t-70 12.5q-70 2 -117 -31.5t-61 -102.5l-271 -2 q6 90 51 155.5t113 108t150.5 62t163.5 18.5q85 -2 161 -27t131.5 -72.5t84 -117.5t19.5 -163l-75 -465q-9 -59 -13.5 -120.5t16.5 -119.5l-1 -18h-269zM461 194q71 -2 133.5 29t107.5 85l34 187l-123 1q-45 0 -91 -9t-85 -29.5t-66 -54.5t-34 -86q-4 -31 4 -54t25 -38 t41.5 -23t53.5 -8zM512 1402q1 44 20 82t49.5 65.5t70 42.5t82.5 15q40 0 74.5 -14.5t60 -40t40 -60t13.5 -74.5q-2 -44 -20 -81t-47.5 -64t-68 -41.5t-81.5 -14.5q-40 0 -75.5 13.5t-62 38t-41.5 58.5t-14 75zM624 1405q-4 -38 18.5 -65.5t61.5 -27.5q21 0 39.5 8.5 t32.5 22.5t23 33t11 39q2 18 -2 35.5t-13.5 30.5t-25 21t-35.5 8q-21 0 -40 -8.5t-34 -23t-24.5 -33.5t-11.5 -40z" />
<glyph unicode="&#xe6;" d="M751 -19q-36 1 -71 7.5t-66.5 21t-58.5 36t-47 52.5q-50 -53 -108.5 -86t-132.5 -32q-69 1 -121.5 24.5t-88 64.5t-52 97.5t-13.5 122.5q6 99 49 168.5t110.5 113t152 62t173.5 15.5h8l24 121q2 16 3 34.5t-3 35t-15 27.5t-33 12q-25 1 -42 -7t-28.5 -22.5t-18.5 -33.5 t-11 -40l-258 10q6 75 35.5 134.5t76.5 101t110.5 63t138.5 20.5q60 -1 116 -17.5t100 -58.5q52 37 108.5 56t120.5 17q81 -2 135.5 -39t85 -94.5t40 -128.5t2.5 -140l-38 -245h-436l-15 -92q-9 -75 23 -114.5t108 -41.5q52 -2 98.5 12.5t93.5 33.5l38 -194 q-30 -23 -65.5 -38.5t-74 -24t-78 -12t-75.5 -2.5zM720 642l196 1l15 114q2 20 1.5 41.5t-7 39t-21 29t-40.5 12.5q-37 1 -60 -15t-37.5 -42t-22 -57t-12.5 -60zM342 185q19 1 35.5 9t33.5 16l62 256l-4 1q-39 2 -74 -12.5t-63 -40t-46 -60t-22 -71.5q-3 -20 0.5 -38.5 t13 -32t25.5 -21t39 -6.5z" />
<glyph unicode="&#xe7;" d="M531 201q40 -1 76.5 10t66 32.5t50 53.5t26.5 72l254 2q-5 -92 -49 -165.5t-112.5 -124.5t-153 -77.5t-171.5 -24.5q-117 2 -200.5 47t-135 119.5t-71.5 172t-9 204.5l3 31q14 113 59 214t118 176.5t171.5 118.5t218.5 40q93 -2 168 -33t127.5 -86.5t79 -132t21.5 -169.5 l-255 1q3 40 -6 75.5t-30 61.5t-53 41.5t-75 17.5q-69 2 -117.5 -27t-80.5 -76.5t-50 -106t-25 -115.5l-4 -30q-5 -48 -5 -104t15 -103.5t49.5 -80t99.5 -34.5zM598 10l-21 -59q62 -14 92.5 -57t29.5 -106q-1 -48 -17 -85t-43.5 -63.5t-63.5 -44.5t-76.5 -29t-82.5 -16.5 t-81 -6.5l6 164q22 1 44 6t40.5 15t31.5 26.5t18 42.5q4 26 -8 40t-32 20.5t-43.5 8t-40.5 3.5l44 140z" />
<glyph unicode="&#xe8;" d="M556 -20q-111 2 -200.5 42.5t-151 110t-90.5 163.5t-19 204l4 41q13 114 61 217t124.5 180t178.5 122t222 42q113 -3 195 -47t132.5 -117.5t69 -168.5t5.5 -200l-18 -118h-707q-2 -52 13 -96.5t43.5 -77.5t70.5 -52.5t96 -20.5q85 -3 160.5 29.5t133.5 92.5l123 -151 q-36 -52 -87.5 -89t-111 -61t-123.5 -35t-124 -10zM665 878q-54 2 -97 -18t-76.5 -54t-58.5 -77t-44 -87h441l5 25q7 44 -2 82t-31.5 66t-57 44.5t-79.5 18.5zM796 1226h-198l-213 279h282z" />
<glyph unicode="&#xe9;" d="M556 -20q-111 2 -200.5 42.5t-151 110t-90.5 163.5t-19 204l4 41q13 114 61 217t124.5 180t178.5 122t222 42q113 -3 195 -47t132.5 -117.5t69 -168.5t5.5 -200l-18 -118h-707q-2 -52 13 -96.5t43.5 -77.5t70.5 -52.5t96 -20.5q85 -3 160.5 29.5t133.5 92.5l123 -151 q-36 -52 -87.5 -89t-111 -61t-123.5 -35t-124 -10zM665 878q-54 2 -97 -18t-76.5 -54t-58.5 -77t-44 -87h441l5 25q7 44 -2 82t-31.5 66t-57 44.5t-79.5 18.5zM796 1502h314l-313 -279h-227z" />
<glyph unicode="&#xea;" d="M556 -20q-111 2 -200.5 42.5t-151 110t-90.5 163.5t-19 204l4 41q13 114 61 217t124.5 180t178.5 122t222 42q113 -3 195 -47t132.5 -117.5t69 -168.5t5.5 -200l-18 -118h-707q-2 -52 13 -96.5t43.5 -77.5t70.5 -52.5t96 -20.5q85 -3 160.5 29.5t133.5 92.5l123 -151 q-36 -52 -87.5 -89t-111 -61t-123.5 -35t-124 -10zM665 878q-54 2 -97 -18t-76.5 -54t-58.5 -77t-44 -87h441l5 25q7 44 -2 82t-31.5 66t-57 44.5t-79.5 18.5zM1069 1302l-2 -30l-209 1l-126 126l-171 -125l-219 -2l2 32l313 240h155z" />
<glyph unicode="&#xeb;" d="M556 -20q-111 2 -200.5 42.5t-151 110t-90.5 163.5t-19 204l4 41q13 114 61 217t124.5 180t178.5 122t222 42q113 -3 195 -47t132.5 -117.5t69 -168.5t5.5 -200l-18 -118h-707q-2 -52 13 -96.5t43.5 -77.5t70.5 -52.5t96 -20.5q85 -3 160.5 29.5t133.5 92.5l123 -151 q-36 -52 -87.5 -89t-111 -61t-123.5 -35t-124 -10zM665 878q-54 2 -97 -18t-76.5 -54t-58.5 -77t-44 -87h441l5 25q7 44 -2 82t-31.5 66t-57 44.5t-79.5 18.5zM348 1389q0 28 10.5 51.5t28.5 40.5t42 27t51 11q26 0 50 -8.5t42.5 -25t29.5 -39t11 -49.5q0 -28 -10.5 -51 t-28.5 -40.5t-41.5 -27t-50.5 -10.5q-27 0 -51 8.5t-42.5 24.5t-29.5 38.5t-11 49.5zM814 1389q0 28 10 51t28 40.5t42 27t51 10.5q26 0 50 -8.5t42.5 -24.5t30 -38.5t11.5 -49.5q0 -28 -10.5 -51.5t-28.5 -41t-42 -27.5t-51 -11q-27 0 -51 8.5t-42 25t-29 39.5t-11 50z" />
<glyph unicode="&#xec;" d="M276 1082h589l-149 -856h301l-40 -226h-889l40 226h314l109 629h-315zM856 1199h-198l-213 279h282z" />
<glyph unicode="&#xed;" d="M276 1082h589l-149 -856h301l-40 -226h-889l40 226h314l109 629h-315zM856 1476h314l-313 -279h-227z" />
<glyph unicode="&#xee;" d="M276 1082h589l-149 -856h301l-40 -226h-889l40 226h314l109 629h-315zM1129 1275l-2 -30l-209 1l-126 126l-171 -125l-219 -2l2 32l313 240h155z" />
<glyph unicode="&#xef;" d="M276 1082h589l-149 -856h301l-40 -226h-889l40 226h314l109 629h-315zM407 1362q0 28 10.5 51.5t28.5 40.5t42 27t51 11q26 0 50 -8.5t42.5 -25t29.5 -39t11 -49.5q0 -28 -10.5 -51t-28.5 -40.5t-41.5 -27t-50.5 -10.5q-27 0 -51 8.5t-42.5 24.5t-29.5 38.5t-11 49.5z M873 1362q0 28 10 51t28 40.5t42 27t51 10.5q26 0 50 -8.5t42.5 -24.5t30 -38.5t11.5 -49.5q0 -28 -10.5 -51.5t-28.5 -41t-42 -27.5t-51 -11q-27 0 -51 8.5t-42 25t-29 39.5t-11 50z" />
<glyph unicode="&#xf0;" d="M987 1262q68 -149 89 -300.5t0 -314.5l-9 -68q-11 -79 -37 -154.5t-66 -143t-93 -124t-117.5 -97t-140.5 -62t-162 -19.5q-101 3 -185 40t-142.5 101.5t-87.5 151t-20 188.5q9 111 53 205t116 162t167.5 105.5t208.5 34.5q69 -2 132 -24.5t118 -64.5q-2 69 -18.5 131.5 t-50.5 121.5l-257 -133l-62 123l221 112q-27 23 -57.5 38t-62.5 29l109 214q74 -22 139.5 -58.5t121.5 -90.5l218 112l60 -124zM809 664q-20 28 -49.5 46t-63 28.5t-69 15t-67.5 4.5q-60 0 -108 -26.5t-82.5 -69t-56 -95.5t-27.5 -107q-6 -49 3 -94.5t32.5 -81.5t61.5 -58.5 t92 -24.5q72 -2 127 30t93.5 83.5t62 115t33.5 124.5l15 96z" />
<glyph unicode="&#xf1;" d="M464 1083l-18 -152q64 78 147.5 125.5t188.5 45.5q94 -2 155.5 -39t96.5 -98t46 -138.5t2 -160.5l-111 -666h-271l110 663q5 47 0.5 85.5t-22 66.5t-50 44t-83.5 17q-67 1 -120 -27.5t-96 -78.5l-135 -770h-272l188 1082zM1093 1542q-3 -46 -19 -90.5t-44 -80t-68 -57 t-91 -21.5q-38 0 -71 14.5t-65 31.5t-64.5 31t-69.5 13q-45 -1 -69.5 -30t-35.5 -68l-134 29q4 45 21 89.5t45.5 80t69 57t90.5 21.5q37 0 70.5 -14.5t65.5 -31.5t64.5 -31t69.5 -13q45 1 70 29.5t36 67.5z" />
<glyph unicode="&#xf2;" d="M91 544q14 114 59.5 216.5t118.5 179.5t172.5 121t221.5 41q117 -2 201 -48t136.5 -121.5t72.5 -173.5t9 -205l-3 -22q-14 -114 -59.5 -215.5t-118.5 -177.5t-172.5 -119.5t-220.5 -40.5q-116 2 -200 47.5t-136.5 120t-73 172t-9.5 204.5zM360 523q-5 -50 -4 -105.5 t17.5 -103t53 -80t101.5 -34.5q68 -2 117.5 28.5t83 79t52 108t26.5 116.5l2 21q3 33 4.5 69.5t-3 72t-15 68t-30 57.5t-49.5 40.5t-73 17.5q-69 2 -118.5 -28t-83 -79t-53 -109t-26.5 -118zM815 1225h-198l-213 279h282z" />
<glyph unicode="&#xf3;" d="M91 544q14 114 59.5 216.5t118.5 179.5t172.5 121t221.5 41q117 -2 201 -48t136.5 -121.5t72.5 -173.5t9 -205l-3 -22q-14 -114 -59.5 -215.5t-118.5 -177.5t-172.5 -119.5t-220.5 -40.5q-116 2 -200 47.5t-136.5 120t-73 172t-9.5 204.5zM360 523q-5 -50 -4 -105.5 t17.5 -103t53 -80t101.5 -34.5q68 -2 117.5 28.5t83 79t52 108t26.5 116.5l2 21q3 33 4.5 69.5t-3 72t-15 68t-30 57.5t-49.5 40.5t-73 17.5q-69 2 -118.5 -28t-83 -79t-53 -109t-26.5 -118zM815 1501h314l-313 -279h-227z" />
<glyph unicode="&#xf4;" d="M91 544q14 114 59.5 216.5t118.5 179.5t172.5 121t221.5 41q117 -2 201 -48t136.5 -121.5t72.5 -173.5t9 -205l-3 -22q-14 -114 -59.5 -215.5t-118.5 -177.5t-172.5 -119.5t-220.5 -40.5q-116 2 -200 47.5t-136.5 120t-73 172t-9.5 204.5zM360 523q-5 -50 -4 -105.5 t17.5 -103t53 -80t101.5 -34.5q68 -2 117.5 28.5t83 79t52 108t26.5 116.5l2 21q3 33 4.5 69.5t-3 72t-15 68t-30 57.5t-49.5 40.5t-73 17.5q-69 2 -118.5 -28t-83 -79t-53 -109t-26.5 -118zM1088 1301l-2 -30l-209 1l-126 126l-171 -125l-219 -2l2 32l313 240h155z" />
<glyph unicode="&#xf5;" d="M91 544q14 114 59.5 216.5t118.5 179.5t172.5 121t221.5 41q117 -2 201 -48t136.5 -121.5t72.5 -173.5t9 -205l-3 -22q-14 -114 -59.5 -215.5t-118.5 -177.5t-172.5 -119.5t-220.5 -40.5q-116 2 -200 47.5t-136.5 120t-73 172t-9.5 204.5zM360 523q-5 -50 -4 -105.5 t17.5 -103t53 -80t101.5 -34.5q68 -2 117.5 28.5t83 79t52 108t26.5 116.5l2 21q3 33 4.5 69.5t-3 72t-15 68t-30 57.5t-49.5 40.5t-73 17.5q-69 2 -118.5 -28t-83 -79t-53 -109t-26.5 -118zM1106 1542q-3 -46 -19 -90.5t-44 -80t-68 -57t-91 -21.5q-38 0 -71 14.5t-65 31.5 t-64.5 31t-69.5 13q-45 -1 -69.5 -30t-35.5 -68l-134 29q4 45 21 89.5t45.5 80t69 57t90.5 21.5q37 0 70.5 -14.5t65.5 -31.5t64.5 -31t69.5 -13q45 1 70 29.5t36 67.5z" />
<glyph unicode="&#xf6;" d="M91 544q14 114 59.5 216.5t118.5 179.5t172.5 121t221.5 41q117 -2 201 -48t136.5 -121.5t72.5 -173.5t9 -205l-3 -22q-14 -114 -59.5 -215.5t-118.5 -177.5t-172.5 -119.5t-220.5 -40.5q-116 2 -200 47.5t-136.5 120t-73 172t-9.5 204.5zM360 523q-5 -50 -4 -105.5 t17.5 -103t53 -80t101.5 -34.5q68 -2 117.5 28.5t83 79t52 108t26.5 116.5l2 21q3 33 4.5 69.5t-3 72t-15 68t-30 57.5t-49.5 40.5t-73 17.5q-69 2 -118.5 -28t-83 -79t-53 -109t-26.5 -118zM367 1388q0 28 10.5 51.5t28.5 40.5t42 27t51 11q26 0 50 -8.5t42.5 -25t29.5 -39 t11 -49.5q0 -28 -10.5 -51t-28.5 -40.5t-41.5 -27t-50.5 -10.5q-27 0 -51 8.5t-42.5 24.5t-29.5 38.5t-11 49.5zM833 1388q0 28 10 51t28 40.5t42 27t51 10.5q26 0 50 -8.5t42.5 -24.5t30 -38.5t11.5 -49.5q0 -28 -10.5 -51.5t-28.5 -41t-42 -27.5t-51 -11q-27 0 -51 8.5 t-42 25t-29 39.5t-11 50z" />
<glyph unicode="&#xf7;" d="M1094 573h-995l40 227h995zM536 1084q0 32 11 58.5t31 46t47 31t59 11.5q30 1 57 -8.5t47 -27.5t32 -44t12 -57q0 -32 -11 -59t-31.5 -46.5t-48 -30.5t-58.5 -11q-30 0 -57 9.5t-46.5 27.5t-31.5 43.5t-12 56.5zM393 273q0 32 11 59t31 46.5t47 31t59 11.5q31 1 58 -9 t47 -28t32 -44t12 -57q0 -32 -11 -59t-31.5 -46.5t-48 -30.5t-58.5 -11q-30 0 -57 9.5t-47 27.5t-32 43.5t-12 56.5z" />
<glyph unicode="&#xf8;" d="M91 544q14 114 59.5 216.5t118.5 179.5t172.5 121t221.5 41q105 -3 186 -41l100 154h166l-153 -236q74 -78 103.5 -189t16.5 -236l-3 -22q-14 -114 -59.5 -215.5t-118.5 -177.5t-172.5 -119.5t-220.5 -40.5q-49 1 -91.5 10t-79.5 24l-100 -154h-167l149 231 q-39 38 -67 86t-44 103.5t-21 117t2 126.5zM360 523q-5 -48 -4 -100.5t15 -99.5l347 536q-32 18 -75 19q-69 2 -118.5 -28t-83 -79t-53 -109t-26.5 -118zM809 553q5 42 5 89t-11 92l-338 -522q27 -11 63 -12q68 -2 117.5 28.5t83 79t52 108t26.5 116.5z" />
<glyph unicode="&#xf9;" d="M739 153q-30 -38 -64 -70t-73 -55.5t-83.5 -36.5t-93.5 -12q-66 1 -115.5 20t-85.5 52t-58.5 77t-34.5 95t-13.5 107t4.5 112l107 640h271l-107 -643q-5 -42 -5.5 -83.5t11 -74.5t39.5 -54t80 -22q73 -2 129.5 28.5t98.5 88.5l133 760h272l-188 -1082h-245zM813 1204 h-198l-213 279h282z" />
<glyph unicode="&#xfa;" d="M739 153q-30 -38 -64 -70t-73 -55.5t-83.5 -36.5t-93.5 -12q-66 1 -115.5 20t-85.5 52t-58.5 77t-34.5 95t-13.5 107t4.5 112l107 640h271l-107 -643q-5 -42 -5.5 -83.5t11 -74.5t39.5 -54t80 -22q73 -2 129.5 28.5t98.5 88.5l133 760h272l-188 -1082h-245zM813 1480h314 l-313 -279h-227z" />
<glyph unicode="&#xfb;" d="M739 153q-30 -38 -64 -70t-73 -55.5t-83.5 -36.5t-93.5 -12q-66 1 -115.5 20t-85.5 52t-58.5 77t-34.5 95t-13.5 107t4.5 112l107 640h271l-107 -643q-5 -42 -5.5 -83.5t11 -74.5t39.5 -54t80 -22q73 -2 129.5 28.5t98.5 88.5l133 760h272l-188 -1082h-245zM1086 1280 l-2 -30l-209 1l-126 126l-171 -125l-219 -2l2 32l313 240h155z" />
<glyph unicode="&#xfc;" d="M739 153q-30 -38 -64 -70t-73 -55.5t-83.5 -36.5t-93.5 -12q-66 1 -115.5 20t-85.5 52t-58.5 77t-34.5 95t-13.5 107t4.5 112l107 640h271l-107 -643q-5 -42 -5.5 -83.5t11 -74.5t39.5 -54t80 -22q73 -2 129.5 28.5t98.5 88.5l133 760h272l-188 -1082h-245zM365 1367 q0 28 10.5 51.5t28.5 40.5t42 27t51 11q26 0 50 -8.5t42.5 -25t29.5 -39t11 -49.5q0 -28 -10.5 -51t-28.5 -40.5t-41.5 -27t-50.5 -10.5q-27 0 -51 8.5t-42.5 24.5t-29.5 38.5t-11 49.5zM831 1367q0 28 10 51t28 40.5t42 27t51 10.5q26 0 50 -8.5t42.5 -24.5t30 -38.5 t11.5 -49.5q0 -28 -10.5 -51.5t-28.5 -41t-42 -27.5t-51 -11q-27 0 -51 8.5t-42 25t-29 39.5t-11 50z" />
<glyph unicode="&#xfd;" d="M557 442l9 -99l406 739h311l-747 -1245q-33 -57 -72.5 -108t-87.5 -88.5t-106.5 -59t-129.5 -21.5q-36 1 -70.5 7.5t-69.5 15.5l55 211q20 -1 42 -4t42 -1q29 2 52 15t42.5 32t37 41.5t34.5 42.5l96 139l-262 1023h286zM836 1480h314l-313 -279h-227z" />
<glyph unicode="&#xfe;" d="M1069 537q-8 -66 -26 -133.5t-46.5 -130.5t-68 -117t-91 -94t-115 -62.5t-140.5 -20.5q-75 2 -138.5 30.5t-111.5 87.5l-97 -513h-271l340 1959h271l-107 -557q56 57 122.5 87.5t147.5 28.5q74 -2 129 -26t94.5 -64t64 -93t36.5 -113t13.5 -123.5t-4.5 -124.5zM799 559 q3 30 4.5 65t-1.5 70t-12 67t-27 57.5t-46 41t-69 16.5q-67 2 -118 -27t-89 -82l-79 -453q21 -57 64 -84t103 -29q68 -2 116 29.5t79.5 81t48.5 110t24 116.5z" />
<glyph unicode="&#xff;" d="M557 442l9 -99l406 739h311l-747 -1245q-33 -57 -72.5 -108t-87.5 -88.5t-106.5 -59t-129.5 -21.5q-36 1 -70.5 7.5t-69.5 15.5l55 211q20 -1 42 -4t42 -1q29 2 52 15t42.5 32t37 41.5t34.5 42.5l96 139l-262 1023h286zM387 1367q0 28 10.5 51.5t28.5 40.5t42 27t51 11 q26 0 50 -8.5t42.5 -25t29.5 -39t11 -49.5q0 -28 -10.5 -51t-28.5 -40.5t-41.5 -27t-50.5 -10.5q-27 0 -51 8.5t-42.5 24.5t-29.5 38.5t-11 49.5zM853 1367q0 28 10 51t28 40.5t42 27t51 10.5q26 0 50 -8.5t42.5 -24.5t30 -38.5t11.5 -49.5q0 -28 -10.5 -51.5t-28.5 -41 t-42 -27.5t-51 -11q-27 0 -51 8.5t-42 25t-29 39.5t-11 50z" />
<glyph unicode="&#x100;" d="M774 304h-423l-136 -304h-297l715 1456h249l202 -1456h-281zM460 543h291l-51 533zM1147 1614h-710l26 164h710z" />
<glyph unicode="&#x101;" d="M700 0q-8 26 -9.5 50.5t-0.5 50.5q-63 -59 -137.5 -90.5t-162.5 -30.5q-68 1 -129.5 23.5t-107 63t-70.5 98.5t-22 130t27.5 127t64.5 96t92 68.5t111 44.5t121.5 24t123.5 7l156 -2l13 67q6 39 -2.5 70t-29 52.5t-51.5 33t-70 12.5q-70 2 -117 -31.5t-61 -102.5l-271 -2 q6 90 51 155.5t113 108t150.5 62t163.5 18.5q85 -2 161 -27t131.5 -72.5t84 -117.5t19.5 -163l-75 -465q-9 -59 -13.5 -120.5t16.5 -119.5l-1 -18h-269zM461 194q71 -2 133.5 29t107.5 85l34 187l-123 1q-45 0 -91 -9t-85 -29.5t-66 -54.5t-34 -86q-4 -31 4 -54t25 -38 t41.5 -23t53.5 -8zM1056 1292h-710l26 164h710z" />
<glyph unicode="&#x102;" d="M774 304h-423l-136 -304h-297l715 1456h249l202 -1456h-281zM460 543h291l-51 533zM1154 1858q-5 -71 -34.5 -126.5t-77 -93t-109 -56.5t-130.5 -18q-67 1 -123.5 21.5t-97.5 58t-64 91.5t-22 123l193 -1q-2 -59 25 -96t92 -38t103 36t49 97z" />
<glyph unicode="&#x103;" d="M700 0q-8 26 -9.5 50.5t-0.5 50.5q-63 -59 -137.5 -90.5t-162.5 -30.5q-68 1 -129.5 23.5t-107 63t-70.5 98.5t-22 130t27.5 127t64.5 96t92 68.5t111 44.5t121.5 24t123.5 7l156 -2l13 67q6 39 -2.5 70t-29 52.5t-51.5 33t-70 12.5q-70 2 -117 -31.5t-61 -102.5l-271 -2 q6 90 51 155.5t113 108t150.5 62t163.5 18.5q85 -2 161 -27t131.5 -72.5t84 -117.5t19.5 -163l-75 -465q-9 -59 -13.5 -120.5t16.5 -119.5l-1 -18h-269zM461 194q71 -2 133.5 29t107.5 85l34 187l-123 1q-45 0 -91 -9t-85 -29.5t-66 -54.5t-34 -86q-4 -31 4 -54t25 -38 t41.5 -23t53.5 -8zM1063 1536q-5 -71 -34.5 -126.5t-77 -93t-109 -56.5t-130.5 -18q-67 1 -123.5 21.5t-97.5 58t-64 91.5t-22 123l193 -1q-2 -59 25 -96t92 -38t103 36t49 97z" />
<glyph unicode="&#x104;" d="M1015 0l7 -3q-29 -13 -59.5 -29.5t-56 -38.5t-42.5 -50t-20 -63q-2 -27 8.5 -43t38.5 -18q20 -1 40.5 5.5t39.5 14.5l36 -157q-40 -22 -84.5 -32t-90.5 -9q-44 0 -81 14.5t-63.5 40.5t-41 62.5t-13.5 81.5q1 41 15 77t37 66.5t53 56.5t63 47l-27 281h-423l-136 -304h-297 l715 1456h249l202 -1456h-69zM460 543h291l-51 533z" />
<glyph unicode="&#x105;" d="M907 0l7 -3q-29 -13 -59.5 -29.5t-56 -38.5t-42.5 -50t-20 -63q-2 -27 8.5 -43t38.5 -18q20 -1 40.5 5.5t39.5 14.5l36 -157q-40 -22 -84.5 -32t-90.5 -9q-44 0 -81 14.5t-63.5 40.5t-41 62.5t-13.5 81.5q1 41 15 77t37 67t53.5 57t63.5 47q-4 19 -4.5 38t0.5 39 q-63 -59 -137.5 -90.5t-162.5 -30.5q-68 1 -129.5 23.5t-107 63t-70.5 98.5t-22 130t27.5 127t64.5 96t92 68.5t111 44.5t121.5 24t123.5 7l156 -2l13 67q6 39 -2.5 70t-29 52.5t-51.5 33t-70 12.5q-70 2 -117 -31.5t-61 -102.5l-271 -2q6 90 51 155.5t113 108t150.5 62 t163.5 18.5q85 -2 161 -27t131.5 -72.5t84 -117.5t19.5 -163l-75 -465q-9 -59 -13.5 -120.5t16.5 -119.5l-1 -18h-62zM461 194q71 -2 133.5 29t107.5 85l34 187l-123 1q-45 0 -91 -9t-85 -29.5t-66 -54.5t-34 -86q-4 -31 4 -54t25 -38t41.5 -23t53.5 -8z" />
<glyph unicode="&#x106;" d="M1075 457q-15 -110 -64 -199t-124 -152t-172 -96.5t-207 -30.5q-89 2 -158 29.5t-119.5 74t-83.5 109t-50.5 134t-20 149t7.5 154.5l29 196q12 81 37.5 162t63.5 154t89.5 135.5t116.5 107.5t143.5 70t170.5 23q112 -2 195 -39.5t137.5 -102.5t82.5 -154t31 -195l-272 1 q0 53 -7.5 100t-29 82t-59.5 56.5t-98 23.5q-57 2 -101 -16.5t-77.5 -50t-58 -74.5t-41.5 -90.5t-28 -96.5t-17 -94l-28 -199q-5 -37 -9 -82t-3.5 -91t8.5 -90t28 -78.5t54 -56t87 -23.5q60 -3 107 15t81 51t56 79.5t33 102.5zM931 1822h314l-313 -279h-227z" />
<glyph unicode="&#x107;" d="M531 201q40 -1 76.5 10t66 32.5t50 53.5t26.5 72l254 2q-5 -92 -49 -165.5t-112.5 -124.5t-153 -77.5t-171.5 -24.5q-117 2 -200.5 47t-135 119.5t-71.5 172t-9 204.5l3 31q14 113 59 214t118 176.5t171.5 118.5t218.5 40q93 -2 168 -33t127.5 -86.5t79 -132t21.5 -169.5 l-255 1q3 40 -6 75.5t-30 61.5t-53 41.5t-75 17.5q-69 2 -117.5 -27t-80.5 -76.5t-50 -106t-25 -115.5l-4 -30q-5 -48 -5 -104t15 -103.5t49.5 -80t99.5 -34.5zM822 1501h314l-313 -279h-227z" />
<glyph unicode="&#x108;" d="M1075 457q-15 -110 -64 -199t-124 -152t-172 -96.5t-207 -30.5q-89 2 -158 29.5t-119.5 74t-83.5 109t-50.5 134t-20 149t7.5 154.5l29 196q12 81 37.5 162t63.5 154t89.5 135.5t116.5 107.5t143.5 70t170.5 23q112 -2 195 -39.5t137.5 -102.5t82.5 -154t31 -195l-272 1 q0 53 -7.5 100t-29 82t-59.5 56.5t-98 23.5q-57 2 -101 -16.5t-77.5 -50t-58 -74.5t-41.5 -90.5t-28 -96.5t-17 -94l-28 -199q-5 -37 -9 -82t-3.5 -91t8.5 -90t28 -78.5t54 -56t87 -23.5q60 -3 107 15t81 51t56 79.5t33 102.5zM1204 1622l-2 -30l-209 1l-126 126l-171 -125 l-219 -2l2 32l313 240h155z" />
<glyph unicode="&#x109;" d="M531 201q40 -1 76.5 10t66 32.5t50 53.5t26.5 72l254 2q-5 -92 -49 -165.5t-112.5 -124.5t-153 -77.5t-171.5 -24.5q-117 2 -200.5 47t-135 119.5t-71.5 172t-9 204.5l3 31q14 113 59 214t118 176.5t171.5 118.5t218.5 40q93 -2 168 -33t127.5 -86.5t79 -132t21.5 -169.5 l-255 1q3 40 -6 75.5t-30 61.5t-53 41.5t-75 17.5q-69 2 -117.5 -27t-80.5 -76.5t-50 -106t-25 -115.5l-4 -30q-5 -48 -5 -104t15 -103.5t49.5 -80t99.5 -34.5zM1095 1301l-2 -30l-209 1l-126 126l-171 -125l-219 -2l2 32l313 240h155z" />
<glyph unicode="&#x10a;" d="M1075 457q-15 -110 -64 -199t-124 -152t-172 -96.5t-207 -30.5q-89 2 -158 29.5t-119.5 74t-83.5 109t-50.5 134t-20 149t7.5 154.5l29 196q12 81 37.5 162t63.5 154t89.5 135.5t116.5 107.5t143.5 70t170.5 23q112 -2 195 -39.5t137.5 -102.5t82.5 -154t31 -195l-272 1 q0 53 -7.5 100t-29 82t-59.5 56.5t-98 23.5q-57 2 -101 -16.5t-77.5 -50t-58 -74.5t-41.5 -90.5t-28 -96.5t-17 -94l-28 -199q-5 -37 -9 -82t-3.5 -91t8.5 -90t28 -78.5t54 -56t87 -23.5q60 -3 107 15t81 51t56 79.5t33 102.5zM710 1722q0 32 11 58.5t30.5 46t46 30.5 t58.5 11q30 1 56.5 -8.5t46.5 -27.5t31.5 -43.5t11.5 -56.5q0 -32 -11 -58.5t-30.5 -45.5t-46.5 -30t-58 -11q-30 -1 -56.5 8.5t-46 27.5t-31.5 43t-12 56z" />
<glyph unicode="&#x10b;" d="M531 201q40 -1 76.5 10t66 32.5t50 53.5t26.5 72l254 2q-5 -92 -49 -165.5t-112.5 -124.5t-153 -77.5t-171.5 -24.5q-117 2 -200.5 47t-135 119.5t-71.5 172t-9 204.5l3 31q14 113 59 214t118 176.5t171.5 118.5t218.5 40q93 -2 168 -33t127.5 -86.5t79 -132t21.5 -169.5 l-255 1q3 40 -6 75.5t-30 61.5t-53 41.5t-75 17.5q-69 2 -117.5 -27t-80.5 -76.5t-50 -106t-25 -115.5l-4 -30q-5 -48 -5 -104t15 -103.5t49.5 -80t99.5 -34.5zM601 1401q0 32 11 58.5t30.5 46t46 30.5t58.5 11q30 1 56.5 -8.5t46.5 -27.5t31.5 -43.5t11.5 -56.5 q0 -32 -11 -58.5t-30.5 -45.5t-46.5 -30t-58 -11q-30 -1 -56.5 8.5t-46 27.5t-31.5 43t-12 56z" />
<glyph unicode="&#x10c;" d="M1075 457q-15 -110 -64 -199t-124 -152t-172 -96.5t-207 -30.5q-89 2 -158 29.5t-119.5 74t-83.5 109t-50.5 134t-20 149t7.5 154.5l29 196q12 81 37.5 162t63.5 154t89.5 135.5t116.5 107.5t143.5 70t170.5 23q112 -2 195 -39.5t137.5 -102.5t82.5 -154t31 -195l-272 1 q0 53 -7.5 100t-29 82t-59.5 56.5t-98 23.5q-57 2 -101 -16.5t-77.5 -50t-58 -74.5t-41.5 -90.5t-28 -96.5t-17 -94l-28 -199q-5 -37 -9 -82t-3.5 -91t8.5 -90t28 -78.5t54 -56t87 -23.5q60 -3 107 15t81 51t56 79.5t33 102.5zM847 1740l165 124l238 3v-23l-320 -251h-171 l-255 250l1 24l224 -2z" />
<glyph unicode="&#x10d;" d="M531 201q40 -1 76.5 10t66 32.5t50 53.5t26.5 72l254 2q-5 -92 -49 -165.5t-112.5 -124.5t-153 -77.5t-171.5 -24.5q-117 2 -200.5 47t-135 119.5t-71.5 172t-9 204.5l3 31q14 113 59 214t118 176.5t171.5 118.5t218.5 40q93 -2 168 -33t127.5 -86.5t79 -132t21.5 -169.5 l-255 1q3 40 -6 75.5t-30 61.5t-53 41.5t-75 17.5q-69 2 -117.5 -27t-80.5 -76.5t-50 -106t-25 -115.5l-4 -30q-5 -48 -5 -104t15 -103.5t49.5 -80t99.5 -34.5zM739 1419l165 124l238 3v-23l-320 -251h-171l-255 250l1 24l224 -2z" />
<glyph unicode="&#x10e;" d="M17 0l252 1456l352 -1q141 -3 245 -58.5t170 -147t91.5 -211t9.5 -251.5l-17 -120q-20 -137 -79 -259t-150.5 -212.5t-213 -143.5t-266.5 -52h-394zM506 1228l-174 -1002l91 -2q95 0 167 37.5t123 99t82.5 141.5t44.5 165l17 123q6 48 6.5 98.5t-7 98.5t-25 90.5t-47 75 t-72.5 52t-102 22.5zM706 1732l165 124l238 3v-23l-320 -251h-171l-255 250l1 24l224 -2z" />
<glyph unicode="&#x10f;" horiz-adv-x="1352" d="M100 543q8 67 26 135t46.5 131t68 117.5t91.5 94t116 61.5t142 20q75 -2 136.5 -31.5t108.5 -87.5l104 553h272l-266 -1536h-243l14 113q-57 -63 -127.5 -99t-158.5 -34q-72 2 -126 26.5t-93 65t-64 93.5t-38 112.5t-15.5 122t3.5 121.5zM369 521q-5 -45 -5.5 -99 t13.5 -101.5t46.5 -80t93.5 -34.5q69 -2 120 30.5t90 84.5l78 440q-42 112 -165 117q-68 1 -116 -30t-80 -80t-49 -109t-24 -117zM1660 1388q-9 -58 -30 -112.5t-51.5 -104.5t-69 -94t-83.5 -81l-122 81q50 72 85.5 147t51.5 163l29 173h218z" />
<glyph unicode="&#x110;" horiz-adv-x="1232" d="M47 0l111 643h-177l32 180h176l110 633l352 -1q141 -3 245 -58.5t170 -147t91.5 -211t9.5 -251.5l-17 -120q-20 -137 -79 -259t-150.5 -212.5t-213 -143.5t-266.5 -52h-394zM654 643h-220l-72 -417l91 -2q95 0 167 37.5t123 99t82.5 141.5t44.5 165l17 123q6 48 6.5 98.5 t-7 98.5t-25 90.5t-47 75t-72.5 52t-102 22.5l-104 1l-71 -405h221z" />
<glyph unicode="&#x111;" horiz-adv-x="1232" d="M1319 1220h-163l-211 -1220h-243l14 113q-57 -63 -127.5 -99t-158.5 -34q-72 2 -126 26.5t-93 65t-64 93.5t-38 112.5t-15.5 122t3.5 121.5l3 22q8 67 26 135t46.5 131t68 117.5t91.5 94t116 61.5t142 20q75 -2 136.5 -31.5t108.5 -87.5l44 237h-233l32 180h235l26 136 h272l-24 -136h164zM369 521q-5 -45 -5.5 -99t13.5 -101.5t46.5 -80t93.5 -34.5q69 -2 120 30.5t90 84.5l78 440q-42 112 -165 117q-68 1 -116 -30t-80 -80t-49 -109t-24 -117z" />
<glyph unicode="&#x112;" d="M1004 638h-580l-72 -411h679l-40 -227h-953l253 1456h950l-40 -229h-675l-64 -367h581zM1154 1605h-710l26 164h710z" />
<glyph unicode="&#x113;" d="M556 -20q-111 2 -200.5 42.5t-151 110t-90.5 163.5t-19 204l4 41q13 114 61 217t124.5 180t178.5 122t222 42q113 -3 195 -47t132.5 -117.5t69 -168.5t5.5 -200l-18 -118h-707q-2 -52 13 -96.5t43.5 -77.5t70.5 -52.5t96 -20.5q85 -3 160.5 29.5t133.5 92.5l123 -151 q-36 -52 -87.5 -89t-111 -61t-123.5 -35t-124 -10zM665 878q-54 2 -97 -18t-76.5 -54t-58.5 -77t-44 -87h441l5 25q7 44 -2 82t-31.5 66t-57 44.5t-79.5 18.5zM1061 1293h-710l26 164h710z" />
<glyph unicode="&#x114;" d="M1004 638h-580l-72 -411h679l-40 -227h-953l253 1456h950l-40 -229h-675l-64 -367h581zM1161 1849q-5 -71 -34.5 -126.5t-77 -93t-109 -56.5t-130.5 -18q-67 1 -123.5 21.5t-97.5 58t-64 91.5t-22 123l193 -1q-2 -59 25 -96t92 -38t103 36t49 97z" />
<glyph unicode="&#x115;" d="M556 -20q-111 2 -200.5 42.5t-151 110t-90.5 163.5t-19 204l4 41q13 114 61 217t124.5 180t178.5 122t222 42q113 -3 195 -47t132.5 -117.5t69 -168.5t5.5 -200l-18 -118h-707q-2 -52 13 -96.5t43.5 -77.5t70.5 -52.5t96 -20.5q85 -3 160.5 29.5t133.5 92.5l123 -151 q-36 -52 -87.5 -89t-111 -61t-123.5 -35t-124 -10zM665 878q-54 2 -97 -18t-76.5 -54t-58.5 -77t-44 -87h441l5 25q7 44 -2 82t-31.5 66t-57 44.5t-79.5 18.5zM1068 1537q-5 -71 -34.5 -126.5t-77 -93t-109 -56.5t-130.5 -18q-67 1 -123.5 21.5t-97.5 58t-64 91.5t-22 123 l193 -1q-2 -59 25 -96t92 -38t103 36t49 97z" />
<glyph unicode="&#x116;" d="M1004 638h-580l-72 -411h679l-40 -227h-953l253 1456h950l-40 -229h-675l-64 -367h581zM669 1714q0 32 11 58.5t30.5 46t46 30.5t58.5 11q30 1 56.5 -8.5t46.5 -27.5t31.5 -43.5t11.5 -56.5q0 -32 -11 -58.5t-30.5 -45.5t-46.5 -30t-58 -11q-30 -1 -56.5 8.5t-46 27.5 t-31.5 43t-12 56z" />
<glyph unicode="&#x117;" d="M556 -20q-111 2 -200.5 42.5t-151 110t-90.5 163.5t-19 204l4 41q13 114 61 217t124.5 180t178.5 122t222 42q113 -3 195 -47t132.5 -117.5t69 -168.5t5.5 -200l-18 -118h-707q-2 -52 13 -96.5t43.5 -77.5t70.5 -52.5t96 -20.5q85 -3 160.5 29.5t133.5 92.5l123 -151 q-36 -52 -87.5 -89t-111 -61t-123.5 -35t-124 -10zM665 878q-54 2 -97 -18t-76.5 -54t-58.5 -77t-44 -87h441l5 25q7 44 -2 82t-31.5 66t-57 44.5t-79.5 18.5zM576 1402q0 32 11 58.5t30.5 46t46 30.5t58.5 11q30 1 56.5 -8.5t46.5 -27.5t31.5 -43.5t11.5 -56.5 q0 -32 -11 -58.5t-30.5 -45.5t-46.5 -30t-58 -11q-30 -1 -56.5 8.5t-46 27.5t-31.5 43t-12 56z" />
<glyph unicode="&#x118;" d="M1004 638h-580l-72 -411h679l-40 -227h-128l7 -3q-29 -13 -59.5 -29.5t-56 -38.5t-42.5 -50t-20 -63q-2 -27 8.5 -43t38.5 -18q20 -1 40.5 5.5t39.5 14.5l36 -157q-40 -22 -84.5 -32t-90.5 -9q-44 0 -81 14.5t-63.5 40.5t-41 62.5t-13.5 81.5q1 36 12 68t29 60t42 52 t51 44h-577l253 1456h950l-40 -229h-675l-64 -367h581z" />
<glyph unicode="&#x119;" d="M1002 175q-47 -68 -118.5 -110.5t-152.5 -63.5q-25 -13 -48.5 -29t-42.5 -35.5t-31.5 -44t-14.5 -53.5q-2 -27 8.5 -43t38.5 -18q20 -1 40.5 5.5t39.5 14.5l36 -157q-40 -22 -84.5 -32t-90.5 -9q-44 0 -81 14.5t-63.5 40.5t-41 62.5t-13.5 81.5q2 57 27.5 103.5 t64.5 84.5q-94 15 -168.5 60t-124.5 112.5t-73 154.5t-14 186l4 41q13 114 61 217t124.5 180t178.5 122t222 42q113 -3 195 -47t132.5 -117.5t69 -168.5t5.5 -200l-18 -118h-707q-2 -52 13 -96.5t43.5 -77.5t70.5 -52.5t96 -20.5q85 -3 160.5 29.5t133.5 92.5zM665 878 q-54 2 -97 -18t-76.5 -54t-58.5 -77t-44 -87h441l5 25q7 44 -2 82t-31.5 66t-57 44.5t-79.5 18.5z" />
<glyph unicode="&#x11a;" d="M1004 638h-580l-72 -411h679l-40 -227h-953l253 1456h950l-40 -229h-675l-64 -367h581zM806 1732l165 124l238 3v-23l-320 -251h-171l-255 250l1 24l224 -2z" />
<glyph unicode="&#x11b;" d="M556 -20q-111 2 -200.5 42.5t-151 110t-90.5 163.5t-19 204l4 41q13 114 61 217t124.5 180t178.5 122t222 42q113 -3 195 -47t132.5 -117.5t69 -168.5t5.5 -200l-18 -118h-707q-2 -52 13 -96.5t43.5 -77.5t70.5 -52.5t96 -20.5q85 -3 160.5 29.5t133.5 92.5l123 -151 q-36 -52 -87.5 -89t-111 -61t-123.5 -35t-124 -10zM665 878q-54 2 -97 -18t-76.5 -54t-58.5 -77t-44 -87h441l5 25q7 44 -2 82t-31.5 66t-57 44.5t-79.5 18.5zM713 1420l165 124l238 3v-23l-320 -251h-171l-255 250l1 24l224 -2z" />
<glyph unicode="&#x11c;" d="M1033 169q-44 -53 -105 -89.5t-130 -59t-140.5 -32t-137.5 -8.5q-90 2 -159.5 29.5t-120 73.5t-84 108t-51 133t-20.5 148.5t7 155.5l29 198q12 80 37 160t62.5 152.5t88.5 135t115 108t141.5 70.5t168.5 24q107 -2 187.5 -34t135 -90.5t84 -142t34.5 -186.5h-266 q-2 48 -12 89t-32 71t-57.5 47.5t-88.5 19.5t-95.5 -17t-76.5 -52t-59 -76.5t-43.5 -91t-30 -95.5t-17.5 -90l-29 -201q-5 -38 -8.5 -83t-1 -91.5t12.5 -89.5t31.5 -77.5t57 -55.5t88.5 -23q56 -2 113 12.5t102 49.5l51 265h-235l37 210h507zM1176 1622l-2 -30l-209 1 l-126 126l-171 -125l-219 -2l2 32l313 240h155z" />
<glyph unicode="&#x11d;" d="M101 542q8 68 27 137t49 132t71 117t94.5 93.5t119 61t143.5 19.5t145 -31t112 -93l36 105l249 -1l-178 -1047q-16 -110 -65 -197t-123.5 -146.5t-170.5 -90t-206 -27.5q-54 1 -107 12.5t-102 33.5t-92.5 54.5t-76.5 75.5l139 166q45 -58 105 -90.5t135 -34.5 q58 -2 107 14.5t87 48t64 76t38 100.5l14 64q-57 -55 -123.5 -85.5t-147.5 -28.5q-72 1 -127.5 25t-96 64.5t-67 93.5t-41 112.5t-17.5 122.5t3 123zM371 521q-3 -31 -4 -66.5t3 -70t14 -66t29 -56t47.5 -40t69.5 -16.5q67 -2 118 26t92 79l82 461q-24 54 -67 79t-101 27 q-68 1 -118 -29.5t-83.5 -79.5t-53 -109.5t-26.5 -117.5zM1067 1301l-2 -30l-209 1l-126 126l-171 -125l-219 -2l2 32l313 240h155z" />
<glyph unicode="&#x11e;" d="M1033 169q-44 -53 -105 -89.5t-130 -59t-140.5 -32t-137.5 -8.5q-90 2 -159.5 29.5t-120 73.5t-84 108t-51 133t-20.5 148.5t7 155.5l29 198q12 80 37 160t62.5 152.5t88.5 135t115 108t141.5 70.5t168.5 24q107 -2 187.5 -34t135 -90.5t84 -142t34.5 -186.5h-266 q-2 48 -12 89t-32 71t-57.5 47.5t-88.5 19.5t-95.5 -17t-76.5 -52t-59 -76.5t-43.5 -91t-30 -95.5t-17.5 -90l-29 -201q-5 -38 -8.5 -83t-1 -91.5t12.5 -89.5t31.5 -77.5t57 -55.5t88.5 -23q56 -2 113 12.5t102 49.5l51 265h-235l37 210h507zM1174 1857q-5 -71 -34.5 -126.5 t-77 -93t-109 -56.5t-130.5 -18q-67 1 -123.5 21.5t-97.5 58t-64 91.5t-22 123l193 -1q-2 -59 25 -96t92 -38t103 36t49 97z" />
<glyph unicode="&#x11f;" d="M101 542q8 68 27 137t49 132t71 117t94.5 93.5t119 61t143.5 19.5t145 -31t112 -93l36 105l249 -1l-178 -1047q-16 -110 -65 -197t-123.5 -146.5t-170.5 -90t-206 -27.5q-54 1 -107 12.5t-102 33.5t-92.5 54.5t-76.5 75.5l139 166q45 -58 105 -90.5t135 -34.5 q58 -2 107 14.5t87 48t64 76t38 100.5l14 64q-57 -55 -123.5 -85.5t-147.5 -28.5q-72 1 -127.5 25t-96 64.5t-67 93.5t-41 112.5t-17.5 122.5t3 123zM371 521q-3 -31 -4 -66.5t3 -70t14 -66t29 -56t47.5 -40t69.5 -16.5q67 -2 118 26t92 79l82 461q-24 54 -67 79t-101 27 q-68 1 -118 -29.5t-83.5 -79.5t-53 -109.5t-26.5 -117.5zM1066 1536q-5 -71 -34.5 -126.5t-77 -93t-109 -56.5t-130.5 -18q-67 1 -123.5 21.5t-97.5 58t-64 91.5t-22 123l193 -1q-2 -59 25 -96t92 -38t103 36t49 97z" />
<glyph unicode="&#x120;" d="M1033 169q-44 -53 -105 -89.5t-130 -59t-140.5 -32t-137.5 -8.5q-90 2 -159.5 29.5t-120 73.5t-84 108t-51 133t-20.5 148.5t7 155.5l29 198q12 80 37 160t62.5 152.5t88.5 135t115 108t141.5 70.5t168.5 24q107 -2 187.5 -34t135 -90.5t84 -142t34.5 -186.5h-266 q-2 48 -12 89t-32 71t-57.5 47.5t-88.5 19.5t-95.5 -17t-76.5 -52t-59 -76.5t-43.5 -91t-30 -95.5t-17.5 -90l-29 -201q-5 -38 -8.5 -83t-1 -91.5t12.5 -89.5t31.5 -77.5t57 -55.5t88.5 -23q56 -2 113 12.5t102 49.5l51 265h-235l37 210h507zM682 1722q0 32 11 58.5t30.5 46 t46 30.5t58.5 11q30 1 56.5 -8.5t46.5 -27.5t31.5 -43.5t11.5 -56.5q0 -32 -11 -58.5t-30.5 -45.5t-46.5 -30t-58 -11q-30 -1 -56.5 8.5t-46 27.5t-31.5 43t-12 56z" />
<glyph unicode="&#x121;" d="M101 542q8 68 27 137t49 132t71 117t94.5 93.5t119 61t143.5 19.5t145 -31t112 -93l36 105l249 -1l-178 -1047q-16 -110 -65 -197t-123.5 -146.5t-170.5 -90t-206 -27.5q-54 1 -107 12.5t-102 33.5t-92.5 54.5t-76.5 75.5l139 166q45 -58 105 -90.5t135 -34.5 q58 -2 107 14.5t87 48t64 76t38 100.5l14 64q-57 -55 -123.5 -85.5t-147.5 -28.5q-72 1 -127.5 25t-96 64.5t-67 93.5t-41 112.5t-17.5 122.5t3 123zM371 521q-3 -31 -4 -66.5t3 -70t14 -66t29 -56t47.5 -40t69.5 -16.5q67 -2 118 26t92 79l82 461q-24 54 -67 79t-101 27 q-68 1 -118 -29.5t-83.5 -79.5t-53 -109.5t-26.5 -117.5zM574 1401q0 32 11 58.5t30.5 46t46 30.5t58.5 11q30 1 56.5 -8.5t46.5 -27.5t31.5 -43.5t11.5 -56.5q0 -32 -11 -58.5t-30.5 -45.5t-46.5 -30t-58 -11q-30 -1 -56.5 8.5t-46 27.5t-31.5 43t-12 56z" />
<glyph unicode="&#x122;" d="M1033 169q-44 -53 -105 -89.5t-130 -59t-140.5 -32t-137.5 -8.5q-90 2 -159.5 29.5t-120 73.5t-84 108t-51 133t-20.5 148.5t7 155.5l29 198q12 80 37 160t62.5 152.5t88.5 135t115 108t141.5 70.5t168.5 24q107 -2 187.5 -34t135 -90.5t84 -142t34.5 -186.5h-266 q-2 48 -12 89t-32 71t-57.5 47.5t-88.5 19.5t-95.5 -17t-76.5 -52t-59 -76.5t-43.5 -91t-30 -95.5t-17.5 -90l-29 -201q-5 -38 -8.5 -83t-1 -91.5t12.5 -89.5t31.5 -77.5t57 -55.5t88.5 -23q56 -2 113 12.5t102 49.5l51 265h-235l37 210h507zM615 -140q-11 -103 -61.5 -194 t-129.5 -157l-113 80q43 62 73 127t42 140l10 72h186z" />
<glyph unicode="&#x123;" d="M101 542q8 68 27 137t49 132t71 117t94.5 93.5t119 61t143.5 19.5t145 -31t112 -93l36 105l249 -1l-178 -1047q-16 -110 -65 -197t-123.5 -146.5t-170.5 -90t-206 -27.5q-54 1 -107 12.5t-102 33.5t-92.5 54.5t-76.5 75.5l139 166q45 -58 105 -90.5t135 -34.5 q58 -2 107 14.5t87 48t64 76t38 100.5l14 64q-57 -55 -123.5 -85.5t-147.5 -28.5q-72 1 -127.5 25t-96 64.5t-67 93.5t-41 112.5t-17.5 122.5t3 123zM371 521q-3 -31 -4 -66.5t3 -70t14 -66t29 -56t47.5 -40t69.5 -16.5q67 -2 118 26t92 79l82 461q-24 54 -67 79t-101 27 q-68 1 -118 -29.5t-83.5 -79.5t-53 -109.5t-26.5 -117.5zM602 1392q7 48 21.5 94.5t37 88.5t54.5 78t73 63l139 -81q-38 -60 -65 -122t-41 -132l-23 -124h-216z" />
<glyph unicode="&#x124;" d="M956 0h-271l110 631h-398l-110 -631h-272l252 1456h273l-104 -597h398l104 597h271zM1128 1614l-2 -30l-209 1l-126 126l-171 -125l-219 -2l2 32l313 240h155z" />
<glyph unicode="&#x125;" d="M455 931q59 76 137.5 124t178.5 47q96 -1 160.5 -39t101 -100.5t48 -142.5t2.5 -165l-109 -655h-272l111 658q5 45 0.5 83.5t-22.5 68t-50 46.5t-81 19q-66 2 -119.5 -23t-99.5 -70l-138 -782h-271l267 1536h271zM1115 1718l-2 -30l-209 1l-126 126l-171 -125l-219 -2 l2 32l313 240h155z" />
<glyph unicode="&#x126;" d="M1118 1218h193l-30 -171h-192l-182 -1047h-271l110 631h-398l-110 -631h-272l181 1047h-48l30 171h47l42 238h273l-42 -238h398l42 238h271zM785 859l33 188h-398l-33 -188h398z" />
<glyph unicode="&#x127;" horiz-adv-x="1232" d="M790 1216h-251l-54 -285q59 76 137.5 124t178.5 47q96 -1 160.5 -39t101 -100.5t48 -142.5t2.5 -165l-109 -655h-272l111 658q5 45 0.5 83.5t-22.5 68t-50 46.5t-81 19q-66 2 -119.5 -23t-99.5 -70l-138 -782h-271l211 1216h-156l32 180h155l25 140h271l-27 -140h249z " />
<glyph unicode="&#x128;" d="M335 1456h819l-40 -227h-275l-174 -1003h276l-40 -226h-819l40 226h268l174 1003h-269zM1142 1864q-3 -46 -19 -90.5t-44 -80t-68 -57t-91 -21.5q-38 0 -71 14.5t-65 31.5t-64.5 31t-69.5 13q-45 -1 -69.5 -30t-35.5 -68l-134 29q4 45 21 89.5t45.5 80t69 57t90.5 21.5 q37 0 70.5 -14.5t65.5 -31.5t64.5 -31t69.5 -13q45 1 70 29.5t36 67.5z" />
<glyph unicode="&#x129;" d="M276 1082h589l-149 -856h301l-40 -226h-889l40 226h314l109 629h-315zM1147 1516q-3 -46 -19 -90.5t-44 -80t-68 -57t-91 -21.5q-38 0 -71 14.5t-65 31.5t-64.5 31t-69.5 13q-45 -1 -69.5 -30t-35.5 -68l-134 29q4 45 21 89.5t45.5 80t69 57t90.5 21.5q37 0 70.5 -14.5 t65.5 -31.5t64.5 -31t69.5 -13q45 1 70 29.5t36 67.5z" />
<glyph unicode="&#x12a;" d="M335 1456h819l-40 -227h-275l-174 -1003h276l-40 -226h-819l40 226h268l174 1003h-269zM1115 1614h-710l26 164h710z" />
<glyph unicode="&#x12b;" d="M276 1082h589l-149 -856h301l-40 -226h-889l40 226h314l109 629h-315zM1120 1267h-710l26 164h710z" />
<glyph unicode="&#x12c;" d="M335 1456h819l-40 -227h-275l-174 -1003h276l-40 -226h-819l40 226h268l174 1003h-269zM1122 1858q-5 -71 -34.5 -126.5t-77 -93t-109 -56.5t-130.5 -18q-67 1 -123.5 21.5t-97.5 58t-64 91.5t-22 123l193 -1q-2 -59 25 -96t92 -38t103 36t49 97z" />
<glyph unicode="&#x12d;" d="M276 1082h589l-149 -856h301l-40 -226h-889l40 226h314l109 629h-315zM1127 1510q-5 -71 -34.5 -126.5t-77 -93t-109 -56.5t-130.5 -18q-67 1 -123.5 21.5t-97.5 58t-64 91.5t-22 123l193 -1q-2 -59 25 -96t92 -38t103 36t49 97z" />
<glyph unicode="&#x12e;" d="M335 1456h819l-40 -227h-275l-174 -1003h276l-40 -226h-111l7 -3q-29 -13 -59.5 -29.5t-56 -38.5t-42.5 -50t-20 -63q-2 -27 8.5 -43t38.5 -18q20 -1 40.5 5.5t39.5 14.5l36 -157q-40 -22 -84.5 -32t-90.5 -9q-44 0 -81 14.5t-63.5 40.5t-41 62.5t-13.5 81.5q1 36 12 68 t29 60t42 52t51 44h-460l40 226h268l174 1003h-269z" />
<glyph unicode="&#x12f;" d="M292 1082h573l-149 -856h285l-40 -226h-330l7 -3q-29 -13 -59.5 -29.5t-56 -38.5t-42.5 -50t-20 -63q-2 -27 8.5 -43t38.5 -18q20 -1 40.5 5.5t39.5 14.5l36 -157q-40 -22 -84.5 -32t-90.5 -9q-44 0 -81 14.5t-63.5 40.5t-41 62.5t-13.5 81.5q1 36 12 68t29 60t42 52 t51 44h-279l39 226h299l109 629h-299zM619 1354q0 34 12 62t33.5 48.5t50 32t61.5 11.5q32 1 60 -9t49 -29t33.5 -46t12.5 -60q0 -34 -12 -62t-33 -48.5t-50 -32t-62 -11.5q-32 -1 -60 9t-49 29t-33.5 46t-12.5 60z" />
<glyph unicode="&#x130;" d="M335 1456h819l-40 -227h-275l-174 -1003h276l-40 -226h-819l40 226h268l174 1003h-269zM630 1723q0 32 11 58.5t30.5 46t46 30.5t58.5 11q30 1 56.5 -8.5t46.5 -27.5t31.5 -43.5t11.5 -56.5q0 -32 -11 -58.5t-30.5 -45.5t-46.5 -30t-58 -11q-30 -1 -56.5 8.5t-46 27.5 t-31.5 43t-12 56z" />
<glyph unicode="&#x131;" d="M276 1082h589l-149 -856h301l-40 -226h-889l40 226h314l109 629h-315z" />
<glyph unicode="&#x132;" d="M213 0h-196l253 1456h196zM1023 1456h196l-193 -1134q-11 -79 -39.5 -142.5t-76 -108.5t-112.5 -68.5t-147 -21.5q-76 1 -131.5 28t-90.5 72.5t-51 107t-13 133.5l196 -1q-2 -29 -0.5 -60.5t11.5 -57.5t31 -43.5t59 -18.5q42 -2 71.5 12.5t49.5 39.5t31 58.5t16 69.5z " />
<glyph unicode="&#x133;" d="M751 1082h405l-186 -1088q-14 -98 -51.5 -177.5t-97.5 -135.5t-141.5 -86.5t-183.5 -30.5q-54 0 -106 4.5t-106 12.5l27 169q43 -8 87 -11t89 -4q62 -1 111 17t85 51.5t59 82t32 108.5l157 918h-210zM162 1082h418l-159 -912h219l-30 -170h-642l30 170h228l128 742h-222z M420 1357q0 49 30.5 81t79.5 34q24 1 45 -7t36.5 -22t24.5 -34.5t9 -45.5q0 -49 -31.5 -80t-79.5 -33q-24 -1 -45 6.5t-36.5 22t-24 34.5t-8.5 44zM985 1358q0 49 30.5 81t80.5 34q24 1 45 -7t36.5 -22t24 -34.5t8.5 -45.5q0 -49 -31 -80t-80 -33q-24 -1 -45 6.5t-36.5 22 t-24 34.5t-8.5 44z" />
<glyph unicode="&#x134;" d="M941 1456h275l-171 -1009q-15 -103 -64 -189.5t-122.5 -149t-166.5 -96.5t-198 -32q-104 1 -184 33t-133.5 90.5t-79.5 141t-23 184.5l275 -1q-2 -47 4 -87.5t25 -70t52.5 -47t86.5 -18.5q52 -1 95 18.5t75 53t53 77.5t29 92zM1480 1611l-2 -30l-209 1l-126 126 l-171 -125l-219 -2l2 32l313 240h155z" />
<glyph unicode="&#x135;" d="M384 1082h539l-188 -1107q-14 -105 -55.5 -183t-106.5 -129.5t-151.5 -76.5t-190.5 -25q-45 1 -90 5t-90 12l36 228q36 -8 73.5 -11.5t74.5 -4.5q92 -2 151 45.5t75 139.5l149 880h-266zM1191 1261l-2 -30l-209 1l-126 126l-171 -125l-219 -2l2 32l313 240h155z" />
<glyph unicode="&#x136;" d="M556 595l-188 -177l-72 -418h-276l253 1456h275l-114 -653l157 175l419 478h352l-599 -656l348 -800h-311zM563 -150q-11 -103 -61.5 -194t-129.5 -157l-113 80q43 62 73 127t42 140l10 72h186z" />
<glyph unicode="&#x137;" d="M514 445l-152 -125l-56 -320h-271l267 1536h271l-151 -865l90 87l343 324h344l-486 -462l336 -620h-316zM542 -149q-11 -103 -61.5 -194t-129.5 -157l-113 80q43 62 73 127t42 140l10 72h186z" />
<glyph unicode="&#x138;" d="M564 424l-195 -147l-48 -277h-271l187 1082h272l-81 -461l108 108l352 353h358l-464 -460l278 -622h-332z" />
<glyph unicode="&#x139;" d="M355 227h662l-40 -227h-936l252 1456h276zM551 1794h314l-313 -279h-227z" />
<glyph unicode="&#x13a;" d="M355 1536h588l-227 -1310h301l-40 -226h-889l40 226h314l188 1083h-315zM924 1893h314l-313 -279h-227z" />
<glyph unicode="&#x13b;" d="M355 227h662l-40 -227h-936l252 1456h276zM572 -127q-11 -103 -61.5 -194t-129.5 -157l-113 80q43 62 73 127t42 140l10 72h186z" />
<glyph unicode="&#x13c;" d="M355 1536h588l-227 -1310h301l-40 -226h-889l40 226h314l188 1083h-315zM622 -126q-11 -103 -61.5 -194t-129.5 -157l-113 80q43 62 73 127t42 140l10 72h186z" />
<glyph unicode="&#x13d;" d="M355 227h662l-40 -227h-936l252 1456h276zM1121 1285q-9 -58 -30 -112.5t-51.5 -104.5t-69 -94t-83.5 -81l-122 81q50 72 85.5 147t51.5 163l29 173h218z" />
<glyph unicode="&#x13e;" horiz-adv-x="1352" d="M355 1536h588l-227 -1310h301l-40 -226h-889l40 226h314l188 1083h-315zM1373 1369q-9 -58 -30 -112.5t-51.5 -104.5t-69 -94t-83.5 -81l-122 81q50 72 85.5 147t51.5 163l29 173h218z" />
<glyph unicode="&#x13f;" d="M355 227h662l-40 -227h-936l252 1456h276zM633 811q0 32 11 58.5t30.5 46t46 30.5t58.5 11q30 1 56.5 -8.5t46.5 -27.5t31.5 -43.5t11.5 -56.5q0 -32 -11 -58.5t-30.5 -45.5t-46.5 -30t-58 -11q-30 -1 -56.5 8.5t-46 27.5t-31.5 43t-12 56z" />
<glyph unicode="&#x140;" horiz-adv-x="1422" d="M355 1536h588l-227 -1310h301l-40 -226h-889l40 226h314l188 1083h-315zM906 807q0 32 11 58.5t30.5 46t46 30.5t58.5 11q30 1 56.5 -8.5t46.5 -27.5t31.5 -43.5t11.5 -56.5q0 -32 -11 -58.5t-30.5 -45.5t-46.5 -30t-58 -11q-30 -1 -56.5 8.5t-46 27.5t-31.5 43t-12 56z " />
<glyph unicode="&#x141;" d="M498 890l238 68l-36 -203l-237 -68l-80 -460h662l-40 -227h-936l104 605l-130 -37l36 203l129 37l113 648h276z" />
<glyph unicode="&#x142;" d="M369 1536h588l-89 -511l295 125l-36 -207l-295 -125l-102 -592h301l-40 -226h-889l40 226h314l81 468l-327 -138l36 207l327 138l71 408h-315z" />
<glyph unicode="&#x143;" d="M955 0h-267l-232 949l-165 -949h-276l252 1456h271l229 -945l166 945h275zM863 1823h314l-313 -279h-227z" />
<glyph unicode="&#x144;" d="M464 1083l-18 -152q64 78 147.5 125.5t188.5 45.5q94 -2 155.5 -39t96.5 -98t46 -138.5t2 -160.5l-111 -666h-271l110 663q5 47 0.5 85.5t-22 66.5t-50 44t-83.5 17q-67 1 -120 -27.5t-96 -78.5l-135 -770h-272l188 1082zM802 1501h314l-313 -279h-227z" />
<glyph unicode="&#x145;" d="M955 0h-267l-232 949l-165 -949h-276l252 1456h271l229 -945l166 945h275zM570 -134q-11 -103 -61.5 -194t-129.5 -157l-113 80q43 62 73 127t42 140l10 72h186z" />
<glyph unicode="&#x146;" d="M464 1083l-18 -152q64 78 147.5 125.5t188.5 45.5q94 -2 155.5 -39t96.5 -98t46 -138.5t2 -160.5l-111 -666h-271l110 663q5 47 0.5 85.5t-22 66.5t-50 44t-83.5 17q-67 1 -120 -27.5t-96 -78.5l-135 -770h-272l188 1082zM569 -127q-11 -103 -61.5 -194t-129.5 -157 l-113 80q43 62 73 127t42 140l10 72h186z" />
<glyph unicode="&#x147;" d="M955 0h-267l-232 949l-165 -949h-276l252 1456h271l229 -945l166 945h275zM779 1741l165 124l238 3v-23l-320 -251h-171l-255 250l1 24l224 -2z" />
<glyph unicode="&#x148;" d="M464 1083l-18 -152q64 78 147.5 125.5t188.5 45.5q94 -2 155.5 -39t96.5 -98t46 -138.5t2 -160.5l-111 -666h-271l110 663q5 47 0.5 85.5t-22 66.5t-50 44t-83.5 17q-67 1 -120 -27.5t-96 -78.5l-135 -770h-272l188 1082zM719 1419l165 124l238 3v-23l-320 -251h-171 l-255 250l1 24l224 -2z" />
<glyph unicode="&#x149;" d="M464 1083l-18 -152q64 78 147.5 125.5t188.5 45.5q94 -2 155.5 -39t96.5 -98t46 -138.5t2 -160.5l-111 -666h-271l110 663q5 47 0.5 85.5t-22 66.5t-50 44t-83.5 17q-67 1 -120 -27.5t-96 -78.5l-135 -770h-272l188 1082zM290 1385q-9 -58 -30 -112.5t-51.5 -104.5 t-69 -94t-83.5 -81l-122 81q50 72 85.5 147t51.5 163l29 173h218z" />
<glyph unicode="&#x14a;" d="M1212 1456l-256 -1494q-12 -88 -45 -161.5t-86 -127t-126 -82.5t-166 -29q-37 0 -72 5t-71 13l39 221q24 -6 48.5 -10t50.5 -4q37 1 64 16.5t46 40t30 56t17 63.5l6 37l-223 891l-155 -891h-274l253 1456h268l222 -892l156 892h274z" />
<glyph unicode="&#x14b;" d="M478 1083l-23 -154q59 78 139 126.5t181 46.5q93 -2 152 -41t90 -101t39 -140t-1 -157l-113 -703q-12 -88 -44.5 -161.5t-85 -126.5t-125.5 -82t-166 -29q-37 1 -72.5 6t-71.5 13l39 223q24 -7 49 -11t50 -4q37 0 63.5 15t44.5 39t29 55t16 63l114 703q4 39 3.5 76.5 t-13 67.5t-39.5 48.5t-74 19.5q-63 2 -114.5 -22.5t-95.5 -67.5l-138 -785h-271l188 1082z" />
<glyph unicode="&#x14c;" d="M1119 622q-13 -81 -38 -161t-63.5 -152t-90 -133.5t-116.5 -105.5t-143 -68t-170 -22q-87 2 -154.5 29.5t-117 74t-81.5 108t-49 132t-20 146.5t7 151l33 212q12 80 36.5 159.5t61 151.5t86.5 134t113 106.5t140 69t168 22.5q88 -2 156.5 -29t120 -73.5t85.5 -108 t52.5 -132t22.5 -147.5t-6 -153zM874 836q5 37 8 81t0.5 88.5t-12.5 86.5t-31 75t-55 54t-85 23q-55 2 -97 -15.5t-73.5 -49t-54.5 -73t-38.5 -87.5t-25.5 -93.5t-16 -90.5l-33 -215q-5 -35 -8.5 -78t-3 -88t8.5 -88t27 -77t51.5 -55.5t83.5 -23.5q54 -2 97 15.5t76.5 48.5 t58.5 73t42.5 88.5t28.5 94.5t18 91zM1133 1635h-710l26 164h710z" />
<glyph unicode="&#x14d;" d="M91 544q14 114 59.5 216.5t118.5 179.5t172.5 121t221.5 41q117 -2 201 -48t136.5 -121.5t72.5 -173.5t9 -205l-3 -22q-14 -114 -59.5 -215.5t-118.5 -177.5t-172.5 -119.5t-220.5 -40.5q-116 2 -200 47.5t-136.5 120t-73 172t-9.5 204.5zM360 523q-5 -50 -4 -105.5 t17.5 -103t53 -80t101.5 -34.5q68 -2 117.5 28.5t83 79t52 108t26.5 116.5l2 21q3 33 4.5 69.5t-3 72t-15 68t-30 57.5t-49.5 40.5t-73 17.5q-69 2 -118.5 -28t-83 -79t-53 -109t-26.5 -118zM1080 1292h-710l26 164h710z" />
<glyph unicode="&#x14e;" d="M1119 622q-13 -81 -38 -161t-63.5 -152t-90 -133.5t-116.5 -105.5t-143 -68t-170 -22q-87 2 -154.5 29.5t-117 74t-81.5 108t-49 132t-20 146.5t7 151l33 212q12 80 36.5 159.5t61 151.5t86.5 134t113 106.5t140 69t168 22.5q88 -2 156.5 -29t120 -73.5t85.5 -108 t52.5 -132t22.5 -147.5t-6 -153zM874 836q5 37 8 81t0.5 88.5t-12.5 86.5t-31 75t-55 54t-85 23q-55 2 -97 -15.5t-73.5 -49t-54.5 -73t-38.5 -87.5t-25.5 -93.5t-16 -90.5l-33 -215q-5 -35 -8.5 -78t-3 -88t8.5 -88t27 -77t51.5 -55.5t83.5 -23.5q54 -2 97 15.5t76.5 48.5 t58.5 73t42.5 88.5t28.5 94.5t18 91zM1140 1879q-5 -71 -34.5 -126.5t-77 -93t-109 -56.5t-130.5 -18q-67 1 -123.5 21.5t-97.5 58t-64 91.5t-22 123l193 -1q-2 -59 25 -96t92 -38t103 36t49 97z" />
<glyph unicode="&#x14f;" d="M91 544q14 114 59.5 216.5t118.5 179.5t172.5 121t221.5 41q117 -2 201 -48t136.5 -121.5t72.5 -173.5t9 -205l-3 -22q-14 -114 -59.5 -215.5t-118.5 -177.5t-172.5 -119.5t-220.5 -40.5q-116 2 -200 47.5t-136.5 120t-73 172t-9.5 204.5zM360 523q-5 -50 -4 -105.5 t17.5 -103t53 -80t101.5 -34.5q68 -2 117.5 28.5t83 79t52 108t26.5 116.5l2 21q3 33 4.5 69.5t-3 72t-15 68t-30 57.5t-49.5 40.5t-73 17.5q-69 2 -118.5 -28t-83 -79t-53 -109t-26.5 -118zM1086 1536q-5 -71 -34.5 -126.5t-77 -93t-109 -56.5t-130.5 -18 q-67 1 -123.5 21.5t-97.5 58t-64 91.5t-22 123l193 -1q-2 -59 25 -96t92 -38t103 36t49 97z" />
<glyph unicode="&#x150;" d="M1119 622q-13 -81 -38 -161t-63.5 -152t-90 -133.5t-116.5 -105.5t-143 -68t-170 -22q-87 2 -154.5 29.5t-117 74t-81.5 108t-49 132t-20 146.5t7 151l33 212q12 80 36.5 159.5t61 151.5t86.5 134t113 106.5t140 69t168 22.5q88 -2 156.5 -29t120 -73.5t85.5 -108 t52.5 -132t22.5 -147.5t-6 -153zM874 836q5 37 8 81t0.5 88.5t-12.5 86.5t-31 75t-55 54t-85 23q-55 2 -97 -15.5t-73.5 -49t-54.5 -73t-38.5 -87.5t-25.5 -93.5t-16 -90.5l-33 -215q-5 -35 -8.5 -78t-3 -88t8.5 -88t27 -77t51.5 -55.5t83.5 -23.5q54 -2 97 15.5t76.5 48.5 t58.5 73t42.5 88.5t28.5 94.5t18 91zM1090 1888h286l-343 -265h-227zM735 1888h273l-297 -265h-220z" />
<glyph unicode="&#x151;" d="M91 544q14 114 59.5 216.5t118.5 179.5t172.5 121t221.5 41q117 -2 201 -48t136.5 -121.5t72.5 -173.5t9 -205l-3 -22q-14 -114 -59.5 -215.5t-118.5 -177.5t-172.5 -119.5t-220.5 -40.5q-116 2 -200 47.5t-136.5 120t-73 172t-9.5 204.5zM360 523q-5 -50 -4 -105.5 t17.5 -103t53 -80t101.5 -34.5q68 -2 117.5 28.5t83 79t52 108t26.5 116.5l2 21q3 33 4.5 69.5t-3 72t-15 68t-30 57.5t-49.5 40.5t-73 17.5q-69 2 -118.5 -28t-83 -79t-53 -109t-26.5 -118zM1036 1545h286l-343 -265h-227zM681 1545h273l-297 -265h-220z" />
<glyph unicode="&#x152;" d="M1051 0h-394q-66 -5 -131 -13t-132 -7q-72 1 -127 23t-95.5 58.5t-66.5 85.5t-40 106t-16 119t5 124l74 464q15 103 50.5 197t95.5 165.5t146 114t201 41.5q66 0 129.5 -8.5t129.5 -13.5h413l-38 -217h-336l-65 -374h287l-38 -217h-286l-73 -416h348zM412 213 q23 -1 44.5 -0.5t44.5 0.5l190 1045q-22 2 -43.5 3.5t-43.5 2.5q-65 1 -108 -25.5t-70 -69.5t-41.5 -97.5t-22.5 -108.5l-72 -468q-5 -42 -7.5 -90.5t7.5 -90t38 -70t84 -31.5z" />
<glyph unicode="&#x153;" d="M41 640q12 87 41 171.5t79.5 150t123.5 104.5t174 37q60 -2 114.5 -22t96.5 -65q48 42 101.5 64.5t117.5 20.5q58 -1 102 -20t75.5 -50.5t52 -73t31.5 -89t12.5 -98t-3.5 -98.5l-34 -218h-400l-7 -36q-6 -36 -5.5 -73t12 -67.5t36.5 -50.5t70 -21q40 -1 75 10.5t70 27.5 l44 -182q-48 -44 -108 -63.5t-124 -18.5q-68 0 -131.5 21.5t-110.5 72.5q-53 -46 -112.5 -70.5t-129.5 -23.5q-95 2 -156 44t-94 107.5t-42 147t0 161.5zM270 438q-2 -15 -4.5 -38.5t-4 -49.5t0 -52.5t9 -47.5t22.5 -35t40 -15q28 -1 49 11t35 32t23 46t15 53t9 52.5t5 45.5 l25 202q1 15 4 38.5t4.5 49.5t-0.5 52t-9.5 47.5t-23 35t-40.5 14.5q-42 2 -67 -24t-39 -64t-20 -79.5t-9 -70.5zM861 879q-26 1 -44.5 -10.5t-31 -31.5t-20 -46t-12.5 -52.5t-8 -50.5t-6 -41h166l12 86q1 18 2.5 42.5t-3 47t-17 38.5t-38.5 18z" />
<glyph unicode="&#x154;" d="M603 544h-212l-94 -544h-275l253 1456l459 -1q100 -2 186.5 -29.5t149 -80.5t95 -133t23.5 -188q-6 -77 -31 -141t-66.5 -115t-98.5 -89.5t-127 -66.5l201 -597v-15h-292zM430 772l191 -3q55 0 104.5 15.5t88 45.5t64 74t32.5 101q13 102 -36 160t-151 62l-213 1z M843 1811h314l-313 -279h-227z" />
<glyph unicode="&#x155;" d="M962 1104q52 -1 102.5 -8.5t101.5 -20.5l-74 -277q-52 13 -104 20.5t-106 8.5q-212 2 -324 -176l-113 -651h-271l188 1082h252l-28 -178q36 44 77 81t88 63.5t99.5 41t111.5 14.5zM776 1501h314l-313 -279h-227z" />
<glyph unicode="&#x156;" d="M603 544h-212l-94 -544h-275l253 1456l459 -1q100 -2 186.5 -29.5t149 -80.5t95 -133t23.5 -188q-6 -77 -31 -141t-66.5 -115t-98.5 -89.5t-127 -66.5l201 -597v-15h-292zM430 772l191 -3q55 0 104.5 15.5t88 45.5t64 74t32.5 101q13 102 -36 160t-151 62l-213 1z M561 -127q-11 -103 -61.5 -194t-129.5 -157l-113 80q43 62 73 127t42 140l10 72h186z" />
<glyph unicode="&#x157;" d="M962 1104q52 -1 102.5 -8.5t101.5 -20.5l-74 -277q-52 13 -104 20.5t-106 8.5q-212 2 -324 -176l-113 -651h-271l188 1082h252l-28 -178q36 44 77 81t88 63.5t99.5 41t111.5 14.5zM391 -127q-11 -103 -61.5 -194t-129.5 -157l-113 80q43 62 73 127t42 140l10 72h186z" />
<glyph unicode="&#x158;" d="M603 544h-212l-94 -544h-275l253 1456l459 -1q100 -2 186.5 -29.5t149 -80.5t95 -133t23.5 -188q-6 -77 -31 -141t-66.5 -115t-98.5 -89.5t-127 -66.5l201 -597v-15h-292zM430 772l191 -3q55 0 104.5 15.5t88 45.5t64 74t32.5 101q13 102 -36 160t-151 62l-213 1z M759 1729l165 124l238 3v-23l-320 -251h-171l-255 250l1 24l224 -2z" />
<glyph unicode="&#x159;" d="M962 1104q52 -1 102.5 -8.5t101.5 -20.5l-74 -277q-52 13 -104 20.5t-106 8.5q-212 2 -324 -176l-113 -651h-271l188 1082h252l-28 -178q36 44 77 81t88 63.5t99.5 41t111.5 14.5zM693 1419l165 124l238 3v-23l-320 -251h-171l-255 250l1 24l224 -2z" />
<glyph unicode="&#x15a;" d="M827 387q7 52 -10.5 89t-50 63.5t-74.5 44.5t-83 32q-78 25 -153.5 63.5t-133.5 92.5t-91.5 126.5t-27.5 165.5q6 104 57 182t128 130t171.5 77t189.5 23q99 -2 183 -34t144 -90t92.5 -140t29.5 -184l-266 1q1 49 -11.5 90t-38 70t-64 45t-90.5 17q-44 1 -87.5 -10.5 t-79.5 -35t-61 -59t-31 -83.5q-6 -51 17 -86.5t61.5 -60t83.5 -41t82 -28.5q79 -27 151 -67.5t125.5 -96.5t83 -129.5t23.5 -164.5q-5 -71 -29 -129t-63.5 -103.5t-91 -79.5t-110.5 -55.5t-123 -31.5t-128 -9q-105 2 -196 34.5t-158 93.5t-103.5 147.5t-33.5 196.5l268 -1 q-3 -118 57.5 -182t181.5 -66q44 0 87.5 10.5t79.5 33t61 57t32 82.5zM882 1844h314l-313 -279h-227z" />
<glyph unicode="&#x15b;" d="M767 303q5 25 -5 43.5t-28 32t-42.5 23t-49.5 16t-48.5 10.5t-39.5 8q-62 15 -129.5 38.5t-123 61t-90.5 92.5t-32 132q2 60 25 109.5t59.5 87.5t84 66t101 45.5t108.5 26t107 7.5q82 -1 160 -21.5t139.5 -63.5t99 -108.5t37.5 -156.5l-270 1q1 39 -12.5 67t-37.5 45.5 t-56.5 26t-69.5 8.5q-31 0 -66 -6t-66 -20.5t-53.5 -39t-28.5 -60.5q-7 -38 12 -61t49 -36.5t65 -20.5t61 -12q67 -13 140 -34.5t132.5 -58.5t97 -94t33.5 -141q-3 -63 -27 -112.5t-62.5 -87.5t-89 -64.5t-106 -43t-113 -23.5t-109.5 -6q-83 1 -163 24t-143.5 68.5t-103 113 t-39.5 159.5l257 -1q2 -44 19 -75t45.5 -50.5t65 -28.5t77.5 -9q31 0 68.5 5t71 18.5t58 37.5t31.5 62zM775 1501h314l-313 -279h-227z" />
<glyph unicode="&#x15c;" d="M827 387q7 52 -10.5 89t-50 63.5t-74.5 44.5t-83 32q-78 25 -153.5 63.5t-133.5 92.5t-91.5 126.5t-27.5 165.5q6 104 57 182t128 130t171.5 77t189.5 23q99 -2 183 -34t144 -90t92.5 -140t29.5 -184l-266 1q1 49 -11.5 90t-38 70t-64 45t-90.5 17q-44 1 -87.5 -10.5 t-79.5 -35t-61 -59t-31 -83.5q-6 -51 17 -86.5t61.5 -60t83.5 -41t82 -28.5q79 -27 151 -67.5t125.5 -96.5t83 -129.5t23.5 -164.5q-5 -71 -29 -129t-63.5 -103.5t-91 -79.5t-110.5 -55.5t-123 -31.5t-128 -9q-105 2 -196 34.5t-158 93.5t-103.5 147.5t-33.5 196.5l268 -1 q-3 -118 57.5 -182t181.5 -66q44 0 87.5 10.5t79.5 33t61 57t32 82.5zM1155 1644l-2 -30l-209 1l-126 126l-171 -125l-219 -2l2 32l313 240h155z" />
<glyph unicode="&#x15d;" d="M767 303q5 25 -5 43.5t-28 32t-42.5 23t-49.5 16t-48.5 10.5t-39.5 8q-62 15 -129.5 38.5t-123 61t-90.5 92.5t-32 132q2 60 25 109.5t59.5 87.5t84 66t101 45.5t108.5 26t107 7.5q82 -1 160 -21.5t139.5 -63.5t99 -108.5t37.5 -156.5l-270 1q1 39 -12.5 67t-37.5 45.5 t-56.5 26t-69.5 8.5q-31 0 -66 -6t-66 -20.5t-53.5 -39t-28.5 -60.5q-7 -38 12 -61t49 -36.5t65 -20.5t61 -12q67 -13 140 -34.5t132.5 -58.5t97 -94t33.5 -141q-3 -63 -27 -112.5t-62.5 -87.5t-89 -64.5t-106 -43t-113 -23.5t-109.5 -6q-83 1 -163 24t-143.5 68.5t-103 113 t-39.5 159.5l257 -1q2 -44 19 -75t45.5 -50.5t65 -28.5t77.5 -9q31 0 68.5 5t71 18.5t58 37.5t31.5 62zM1048 1301l-2 -30l-209 1l-126 126l-171 -125l-219 -2l2 32l313 240h155z" />
<glyph unicode="&#x15e;" d="M827 387q7 52 -10.5 89t-50 63.5t-74.5 44.5t-83 32q-78 25 -153.5 63.5t-133.5 92.5t-91.5 126.5t-27.5 165.5q6 104 57 182t128 130t171.5 77t189.5 23q99 -2 183 -34t144 -90t92.5 -140t29.5 -184l-266 1q1 49 -11.5 90t-38 70t-64 45t-90.5 17q-44 1 -87.5 -10.5 t-79.5 -35t-61 -59t-31 -83.5q-6 -51 17 -86.5t61.5 -60t83.5 -41t82 -28.5q79 -27 151 -67.5t125.5 -96.5t83 -129.5t23.5 -164.5q-5 -71 -29 -129t-63.5 -103.5t-91 -79.5t-110.5 -55.5t-123 -31.5t-128 -9q-105 2 -196 34.5t-158 93.5t-103.5 147.5t-33.5 196.5l268 -1 q-3 -118 57.5 -182t181.5 -66q44 0 87.5 10.5t79.5 33t61 57t32 82.5zM639 -4l-21 -59q62 -14 92.5 -57t29.5 -106q-1 -48 -17 -85t-43.5 -63.5t-63.5 -44.5t-76.5 -29t-82.5 -16.5t-81 -6.5l6 164q22 1 44 6t40.5 15t31.5 26.5t18 42.5q4 26 -8 40t-32 20.5t-43.5 8 t-40.5 3.5l44 140z" />
<glyph unicode="&#x15f;" d="M767 303q5 25 -5 43.5t-28 32t-42.5 23t-49.5 16t-48.5 10.5t-39.5 8q-62 15 -129.5 38.5t-123 61t-90.5 92.5t-32 132q2 60 25 109.5t59.5 87.5t84 66t101 45.5t108.5 26t107 7.5q82 -1 160 -21.5t139.5 -63.5t99 -108.5t37.5 -156.5l-270 1q1 39 -12.5 67t-37.5 45.5 t-56.5 26t-69.5 8.5q-31 0 -66 -6t-66 -20.5t-53.5 -39t-28.5 -60.5q-7 -38 12 -61t49 -36.5t65 -20.5t61 -12q67 -13 140 -34.5t132.5 -58.5t97 -94t33.5 -141q-3 -63 -27 -112.5t-62.5 -87.5t-89 -64.5t-106 -43t-113 -23.5t-109.5 -6q-83 1 -163 24t-143.5 68.5t-103 113 t-39.5 159.5l257 -1q2 -44 19 -75t45.5 -50.5t65 -28.5t77.5 -9q31 0 68.5 5t71 18.5t58 37.5t31.5 62zM577 -4l-21 -59q62 -14 92.5 -57t29.5 -106q-1 -48 -17 -85t-43.5 -63.5t-63.5 -44.5t-76.5 -29t-82.5 -16.5t-81 -6.5l6 164q22 1 44 6t40.5 15t31.5 26.5t18 42.5 q4 26 -8 40t-32 20.5t-43.5 8t-40.5 3.5l44 140z" />
<glyph unicode="&#x160;" d="M827 387q7 52 -10.5 89t-50 63.5t-74.5 44.5t-83 32q-78 25 -153.5 63.5t-133.5 92.5t-91.5 126.5t-27.5 165.5q6 104 57 182t128 130t171.5 77t189.5 23q99 -2 183 -34t144 -90t92.5 -140t29.5 -184l-266 1q1 49 -11.5 90t-38 70t-64 45t-90.5 17q-44 1 -87.5 -10.5 t-79.5 -35t-61 -59t-31 -83.5q-6 -51 17 -86.5t61.5 -60t83.5 -41t82 -28.5q79 -27 151 -67.5t125.5 -96.5t83 -129.5t23.5 -164.5q-5 -71 -29 -129t-63.5 -103.5t-91 -79.5t-110.5 -55.5t-123 -31.5t-128 -9q-105 2 -196 34.5t-158 93.5t-103.5 147.5t-33.5 196.5l268 -1 q-3 -118 57.5 -182t181.5 -66q44 0 87.5 10.5t79.5 33t61 57t32 82.5zM798 1762l165 124l238 3v-23l-320 -251h-171l-255 250l1 24l224 -2z" />
<glyph unicode="&#x161;" d="M767 303q5 25 -5 43.5t-28 32t-42.5 23t-49.5 16t-48.5 10.5t-39.5 8q-62 15 -129.5 38.5t-123 61t-90.5 92.5t-32 132q2 60 25 109.5t59.5 87.5t84 66t101 45.5t108.5 26t107 7.5q82 -1 160 -21.5t139.5 -63.5t99 -108.5t37.5 -156.5l-270 1q1 39 -12.5 67t-37.5 45.5 t-56.5 26t-69.5 8.5q-31 0 -66 -6t-66 -20.5t-53.5 -39t-28.5 -60.5q-7 -38 12 -61t49 -36.5t65 -20.5t61 -12q67 -13 140 -34.5t132.5 -58.5t97 -94t33.5 -141q-3 -63 -27 -112.5t-62.5 -87.5t-89 -64.5t-106 -43t-113 -23.5t-109.5 -6q-83 1 -163 24t-143.5 68.5t-103 113 t-39.5 159.5l257 -1q2 -44 19 -75t45.5 -50.5t65 -28.5t77.5 -9q31 0 68.5 5t71 18.5t58 37.5t31.5 62zM692 1419l165 124l238 3v-23l-320 -251h-171l-255 250l1 24l224 -2z" />
<glyph unicode="&#x162;" d="M1274 1227h-435l-213 -1227h-275l213 1227h-430l40 229h1141zM590 18l-21 -59q62 -14 92.5 -57t29.5 -106q-1 -48 -17 -85t-43.5 -63.5t-63.5 -44.5t-76.5 -29t-82.5 -16.5t-81 -6.5l6 164q22 1 44 6t40.5 15t31.5 26.5t18 42.5q4 26 -8 40t-32 20.5t-43.5 8t-40.5 3.5 l44 140z" />
<glyph unicode="&#x163;" d="M762 1347l-46 -265h392l-36 -205h-392l-76 -466q-5 -43 -1.5 -79t19 -63t45 -43t76.5 -17q58 -2 115 7t114 21l9 -193q-36 -20 -76.5 -33t-83 -20t-85.5 -9.5t-83 -1.5q-91 1 -156.5 32.5t-106 85.5t-56 127.5t-6.5 159.5l81 492h-240l36 205h240l46 265h271zM652 5 l-21 -59q62 -14 92.5 -57t29.5 -106q-1 -48 -17 -85t-43.5 -63.5t-63.5 -44.5t-76.5 -29t-82.5 -16.5t-81 -6.5l6 164q22 1 44 6t40.5 15t31.5 26.5t18 42.5q4 26 -8 40t-32 20.5t-43.5 8t-40.5 3.5l44 140z" />
<glyph unicode="&#x164;" d="M1274 1227h-435l-213 -1227h-275l213 1227h-430l40 229h1141zM780 1738l165 124l238 3v-23l-320 -251h-171l-255 250l1 24l224 -2z" />
<glyph unicode="&#x165;" horiz-adv-x="1242" d="M762 1347l-46 -265h392l-36 -205h-392l-76 -466q-5 -43 -1.5 -79t19 -63t45 -43t76.5 -17q58 -2 115 7t114 21l9 -193q-36 -20 -76.5 -33t-83 -20t-85.5 -9.5t-83 -1.5q-91 1 -156.5 32.5t-106 85.5t-56 127.5t-6.5 159.5l81 492h-240l36 205h240l46 265h271zM1361 1551 q-9 -58 -30 -112.5t-51.5 -104.5t-69 -94t-83.5 -81l-122 81q50 72 85.5 147t51.5 163l29 173h218z" />
<glyph unicode="&#x166;" d="M933 757h-176l-131 -757h-275l131 757h-222l32 180h221l51 290h-430l40 229h1141l-41 -229h-435l-51 -290h177z" />
<glyph unicode="&#x167;" d="M834 539h-209l-21 -128q-5 -43 -1.5 -79t19 -63t45 -43t76.5 -17q58 -2 115 7t114 21l9 -193q-36 -20 -76.5 -33t-83 -20t-85.5 -9.5t-83 -1.5q-91 1 -156.5 32.5t-106 85.5t-56 127.5t-6.5 159.5l25 154h-192l32 180h190l26 158h-240l36 205h240l46 265h271l-46 -265 h392l-36 -205h-392l-26 -158h212z" />
<glyph unicode="&#x168;" d="M1217 1456l-163 -964q-17 -113 -61 -208t-114 -163.5t-165.5 -106t-214.5 -34.5q-110 2 -189.5 43.5t-128.5 111t-68 161.5t-7 194l165 966h274l-162 -966q-5 -43 -4.5 -91.5t14 -90.5t44 -70.5t86.5 -31.5q62 -3 107 21.5t75.5 65.5t48.5 93t26 104l165 966h272z M1164 1861q-3 -46 -19 -90.5t-44 -80t-68 -57t-91 -21.5q-38 0 -71 14.5t-65 31.5t-64.5 31t-69.5 13q-45 -1 -69.5 -30t-35.5 -68l-134 29q4 45 21 89.5t45.5 80t69 57t90.5 21.5q37 0 70.5 -14.5t65.5 -31.5t64.5 -31t69.5 -13q45 1 70 29.5t36 67.5z" />
<glyph unicode="&#x169;" d="M739 153q-30 -38 -64 -70t-73 -55.5t-83.5 -36.5t-93.5 -12q-66 1 -115.5 20t-85.5 52t-58.5 77t-34.5 95t-13.5 107t4.5 112l107 640h271l-107 -643q-5 -42 -5.5 -83.5t11 -74.5t39.5 -54t80 -22q73 -2 129.5 28.5t98.5 88.5l133 760h272l-188 -1082h-245zM1104 1521 q-3 -46 -19 -90.5t-44 -80t-68 -57t-91 -21.5q-38 0 -71 14.5t-65 31.5t-64.5 31t-69.5 13q-45 -1 -69.5 -30t-35.5 -68l-134 29q4 45 21 89.5t45.5 80t69 57t90.5 21.5q37 0 70.5 -14.5t65.5 -31.5t64.5 -31t69.5 -13q45 1 70 29.5t36 67.5z" />
<glyph unicode="&#x16a;" d="M1217 1456l-163 -964q-17 -113 -61 -208t-114 -163.5t-165.5 -106t-214.5 -34.5q-110 2 -189.5 43.5t-128.5 111t-68 161.5t-7 194l165 966h274l-162 -966q-5 -43 -4.5 -91.5t14 -90.5t44 -70.5t86.5 -31.5q62 -3 107 21.5t75.5 65.5t48.5 93t26 104l165 966h272z M1137 1611h-710l26 164h710z" />
<glyph unicode="&#x16b;" d="M739 153q-30 -38 -64 -70t-73 -55.5t-83.5 -36.5t-93.5 -12q-66 1 -115.5 20t-85.5 52t-58.5 77t-34.5 95t-13.5 107t4.5 112l107 640h271l-107 -643q-5 -42 -5.5 -83.5t11 -74.5t39.5 -54t80 -22q73 -2 129.5 28.5t98.5 88.5l133 760h272l-188 -1082h-245zM1078 1272 h-710l26 164h710z" />
<glyph unicode="&#x16c;" d="M1217 1456l-163 -964q-17 -113 -61 -208t-114 -163.5t-165.5 -106t-214.5 -34.5q-110 2 -189.5 43.5t-128.5 111t-68 161.5t-7 194l165 966h274l-162 -966q-5 -43 -4.5 -91.5t14 -90.5t44 -70.5t86.5 -31.5q62 -3 107 21.5t75.5 65.5t48.5 93t26 104l165 966h272z M1144 1855q-5 -71 -34.5 -126.5t-77 -93t-109 -56.5t-130.5 -18q-67 1 -123.5 21.5t-97.5 58t-64 91.5t-22 123l193 -1q-2 -59 25 -96t92 -38t103 36t49 97z" />
<glyph unicode="&#x16d;" d="M739 153q-30 -38 -64 -70t-73 -55.5t-83.5 -36.5t-93.5 -12q-66 1 -115.5 20t-85.5 52t-58.5 77t-34.5 95t-13.5 107t4.5 112l107 640h271l-107 -643q-5 -42 -5.5 -83.5t11 -74.5t39.5 -54t80 -22q73 -2 129.5 28.5t98.5 88.5l133 760h272l-188 -1082h-245zM1084 1515 q-5 -71 -34.5 -126.5t-77 -93t-109 -56.5t-130.5 -18q-67 1 -123.5 21.5t-97.5 58t-64 91.5t-22 123l193 -1q-2 -59 25 -96t92 -38t103 36t49 97z" />
<glyph unicode="&#x16e;" d="M1217 1456l-163 -964q-17 -113 -61 -208t-114 -163.5t-165.5 -106t-214.5 -34.5q-110 2 -189.5 43.5t-128.5 111t-68 161.5t-7 194l165 966h274l-162 -966q-5 -43 -4.5 -91.5t14 -90.5t44 -70.5t86.5 -31.5q62 -3 107 21.5t75.5 65.5t48.5 93t26 104l165 966h272z M594 1721q1 44 20 82t49.5 65.5t70 42.5t82.5 15q40 0 74.5 -14.5t60 -40t40 -60t13.5 -74.5q-2 -44 -20 -81t-47.5 -64t-68 -41.5t-81.5 -14.5q-40 0 -75.5 13.5t-62 38t-41.5 58.5t-14 75zM706 1724q-4 -38 18.5 -65.5t61.5 -27.5q21 0 39.5 8.5t32.5 22.5t23 33t11 39 q2 18 -2 35.5t-13.5 30.5t-25 21t-35.5 8q-21 0 -40 -8.5t-34 -23t-24.5 -33.5t-11.5 -40z" />
<glyph unicode="&#x16f;" d="M739 153q-30 -38 -64 -70t-73 -55.5t-83.5 -36.5t-93.5 -12q-66 1 -115.5 20t-85.5 52t-58.5 77t-34.5 95t-13.5 107t4.5 112l107 640h271l-107 -643q-5 -42 -5.5 -83.5t11 -74.5t39.5 -54t80 -22q73 -2 129.5 28.5t98.5 88.5l133 760h272l-188 -1082h-245zM534 1381 q1 44 20 82t49.5 65.5t70 42.5t82.5 15q40 0 74.5 -14.5t60 -40t40 -60t13.5 -74.5q-2 -44 -20 -81t-47.5 -64t-68 -41.5t-81.5 -14.5q-40 0 -75.5 13.5t-62 38t-41.5 58.5t-14 75zM646 1384q-4 -38 18.5 -65.5t61.5 -27.5q21 0 39.5 8.5t32.5 22.5t23 33t11 39 q2 18 -2 35.5t-13.5 30.5t-25 21t-35.5 8q-21 0 -40 -8.5t-34 -23t-24.5 -33.5t-11.5 -40z" />
<glyph unicode="&#x170;" d="M1217 1456l-163 -964q-17 -113 -61 -208t-114 -163.5t-165.5 -106t-214.5 -34.5q-110 2 -189.5 43.5t-128.5 111t-68 161.5t-7 194l165 966h274l-162 -966q-5 -43 -4.5 -91.5t14 -90.5t44 -70.5t86.5 -31.5q62 -3 107 21.5t75.5 65.5t48.5 93t26 104l165 966h272z M1094 1864h286l-343 -265h-227zM739 1864h273l-297 -265h-220z" />
<glyph unicode="&#x171;" d="M739 153q-30 -38 -64 -70t-73 -55.5t-83.5 -36.5t-93.5 -12q-66 1 -115.5 20t-85.5 52t-58.5 77t-34.5 95t-13.5 107t4.5 112l107 640h271l-107 -643q-5 -42 -5.5 -83.5t11 -74.5t39.5 -54t80 -22q73 -2 129.5 28.5t98.5 88.5l133 760h272l-188 -1082h-245zM1034 1524 h286l-343 -265h-227zM679 1524h273l-297 -265h-220z" />
<glyph unicode="&#x172;" d="M1217 1456l-163 -964q-13 -87 -42 -163.5t-74 -139t-105 -108.5t-135 -72q-32 -23 -55.5 -54.5t-26.5 -73.5q-2 -27 8.5 -43t38.5 -18q20 -1 40.5 5.5t39.5 14.5l36 -157q-40 -22 -84.5 -32t-90.5 -9q-44 0 -81 14.5t-63.5 40.5t-41 62.5t-13.5 81.5q1 41 14.5 76 t35.5 66q-98 10 -169 54t-115 112t-60.5 156t-4.5 185l165 966h274l-162 -966q-5 -43 -4.5 -91.5t14 -90.5t44 -70.5t86.5 -31.5q62 -3 107 21.5t75.5 65.5t48.5 93t26 104l165 966h272z" />
<glyph unicode="&#x173;" d="M938 0l7 -3q-29 -13 -59.5 -29.5t-56 -38.5t-42.5 -50t-20 -63q-2 -27 8.5 -43t38.5 -18q20 -1 40.5 5.5t39.5 14.5l36 -157q-40 -22 -84.5 -32t-90.5 -9q-44 0 -81 14.5t-63.5 40.5t-41 62.5t-13.5 81.5q1 40 14.5 75.5t36 66.5t52 56.5t62.5 46.5l18 132 q-30 -38 -64 -70t-73 -55.5t-83.5 -36.5t-93.5 -12q-66 1 -115.5 20t-85.5 52t-58.5 77t-34.5 95t-13.5 107t4.5 112l107 640h271l-107 -643q-5 -42 -5.5 -83.5t11 -74.5t39.5 -54t80 -22q73 -2 129.5 28.5t98.5 88.5l133 760h272l-188 -1082h-25z" />
<glyph unicode="&#x174;" d="M813 584l239 872h255l-423 -1456h-248l1 855l-262 -855h-248l33 1456h248l-36 -863l255 863h197zM1114 1623l-2 -30l-209 1l-126 126l-171 -125l-219 -2l2 32l313 240h155z" />
<glyph unicode="&#x175;" d="M761 342l219 740h254l-376 -1082h-238l-18 684l-251 -684h-239v1082h244l-39 -738l259 738h182zM1068 1280l-2 -30l-209 1l-126 126l-171 -125l-219 -2l2 32l313 240h155z" />
<glyph unicode="&#x176;" d="M636 787l394 669h313l-618 -965l-86 -491h-273l91 530l-271 926h288zM1150 1623l-2 -30l-209 1l-126 126l-171 -125l-219 -2l2 32l313 240h155z" />
<glyph unicode="&#x177;" d="M557 442l9 -99l406 739h311l-747 -1245q-33 -57 -72.5 -108t-87.5 -88.5t-106.5 -59t-129.5 -21.5q-36 1 -70.5 7.5t-69.5 15.5l55 211q20 -1 42 -4t42 -1q29 2 52 15t42.5 32t37 41.5t34.5 42.5l96 139l-262 1023h286zM1109 1280l-2 -30l-209 1l-126 126l-171 -125 l-219 -2l2 32l313 240h155z" />
<glyph unicode="&#x178;" d="M636 787l394 669h313l-618 -965l-86 -491h-273l91 530l-271 926h288zM428 1710q0 28 10.5 51.5t28.5 40.5t42 27t51 11q26 0 50 -8.5t42.5 -25t29.5 -39t11 -49.5q0 -28 -10.5 -51t-28.5 -40.5t-41.5 -27t-50.5 -10.5q-27 0 -51 8.5t-42.5 24.5t-29.5 38.5t-11 49.5z M894 1710q0 28 10 51t28 40.5t42 27t51 10.5q26 0 50 -8.5t42.5 -24.5t30 -38.5t11.5 -49.5q0 -28 -10.5 -51.5t-28.5 -41t-42 -27.5t-51 -11q-27 0 -51 8.5t-42 25t-29 39.5t-11 50z" />
<glyph unicode="&#x179;" d="M368 227h693l-35 -227h-1034l29 183l841 1044h-677l37 229h1014l-27 -178zM861 1820h314l-313 -279h-227z" />
<glyph unicode="&#x17a;" d="M433 223h610l-35 -223h-988l29 182l684 674h-566l36 226h950l-28 -177zM836 1480h314l-313 -279h-227z" />
<glyph unicode="&#x17b;" d="M368 227h693l-35 -227h-1034l29 183l841 1044h-677l37 229h1014l-27 -178zM640 1720q0 32 11 58.5t30.5 46t46 30.5t58.5 11q30 1 56.5 -8.5t46.5 -27.5t31.5 -43.5t11.5 -56.5q0 -32 -11 -58.5t-30.5 -45.5t-46.5 -30t-58 -11q-30 -1 -56.5 8.5t-46 27.5t-31.5 43 t-12 56z" />
<glyph unicode="&#x17c;" d="M433 223h610l-35 -223h-988l29 182l684 674h-566l36 226h950l-28 -177zM615 1380q0 32 11 58.5t30.5 46t46 30.5t58.5 11q30 1 56.5 -8.5t46.5 -27.5t31.5 -43.5t11.5 -56.5q0 -32 -11 -58.5t-30.5 -45.5t-46.5 -30t-58 -11q-30 -1 -56.5 8.5t-46 27.5t-31.5 43t-12 56z " />
<glyph unicode="&#x17d;" d="M368 227h693l-35 -227h-1034l29 183l841 1044h-677l37 229h1014l-27 -178zM777 1738l165 124l238 3v-23l-320 -251h-171l-255 250l1 24l224 -2z" />
<glyph unicode="&#x17e;" d="M433 223h610l-35 -223h-988l29 182l684 674h-566l36 226h950l-28 -177zM752 1398l165 124l238 3v-23l-320 -251h-171l-255 250l1 24l224 -2z" />
<glyph unicode="&#x17f;" d="M295 0l188 1100q16 111 61 201t115 153t164 96t208 32q41 -1 80.5 -7.5t79.5 -14.5l-47 -214q-23 5 -45.5 8.5t-46.5 4.5q-60 1 -110.5 -17t-89 -52t-63.5 -82.5t-35 -106.5l-189 -1101h-270z" />
<glyph unicode="&#x192;" d="M961 877h-200l-136 -890q-12 -93 -45.5 -171.5t-89 -135t-133 -88t-176.5 -30.5q-97 1 -189 39l37 220q29 -17 65 -26t71 -10q45 -1 78 15.5t55.5 44.5t35.5 65t19 77l136 890h-156l32 205h156l9 79q13 103 56.5 182.5t111 133t156 80t190.5 24.5q51 -1 99 -13.5 t96 -28.5l-45 -215q-62 32 -131 32q-50 1 -93.5 -10.5t-77.5 -35.5t-57 -61t-31 -88l-11 -79h200z" />
<glyph unicode="&#x1a0;" d="M1132 622q-13 -81 -38 -161t-63.5 -152t-90 -133.5t-116.5 -105.5t-143 -68t-170 -22q-87 2 -154.5 29.5t-117 74t-81.5 108t-49 132t-20 146.5t7 151l33 212q12 80 36.5 159.5t61 151.5t86.5 134t113 106.5t140 69t168 22.5q121 -3 205 -52t138 -128q25 14 41.5 37 t27.5 51t17 59t11 60l186 1q-6 -64 -21.5 -119.5t-42 -100.5t-64.5 -79t-89 -54q22 -75 27.5 -156t-5.5 -162zM887 836q5 37 8 81t0.5 88.5t-12.5 86.5t-31 75t-55 54t-85 23q-54 2 -96.5 -15.5t-74 -49t-54.5 -73t-38.5 -87.5t-25.5 -93.5t-16 -90.5l-33 -215 q-5 -35 -8.5 -78t-3 -88t8.5 -88t27 -77t51.5 -55.5t83.5 -23.5q54 -2 97 15.5t76.5 48.5t58.5 73t42.5 88.5t28.5 94.5t18 91z" />
<glyph unicode="&#x1a1;" d="M83 544q14 114 59.5 216.5t118.5 179.5t172.5 121t221.5 41q100 -2 174.5 -35.5t127.5 -90.5q24 15 41.5 37.5t30 49t21 56.5t13.5 60l182 2q-10 -124 -62.5 -208.5t-144.5 -127.5q26 -65 35 -139t1 -152l-3 -22q-14 -114 -59.5 -215.5t-118.5 -177.5t-172.5 -119.5 t-220.5 -40.5q-116 2 -200 47.5t-136.5 120t-73 172t-9.5 204.5zM352 523q-5 -50 -4 -105.5t17.5 -103t53 -80t101.5 -34.5q68 -2 117.5 28.5t83 79t52 108t26.5 116.5l2 21q3 33 4.5 69.5t-3 72t-15 68t-30 57.5t-49.5 40.5t-73 17.5q-69 2 -118.5 -28t-83 -79t-53 -109 t-26.5 -118z" />
<glyph unicode="&#x1af;" d="M1224 1456l-33 -196q52 5 85 25.5t53.5 53t31 76t17.5 94.5l191 1q-8 -98 -36 -172.5t-78 -125.5t-122 -79t-169 -32l-103 -609q-17 -113 -61 -208t-114 -163.5t-165.5 -106t-214.5 -34.5q-110 2 -189.5 43.5t-128.5 111t-68 161.5t-7 194l165 966h274l-162 -966 q-5 -43 -4.5 -91.5t14 -90.5t44 -70.5t86.5 -31.5q62 -3 107 21.5t75.5 65.5t48.5 93t26 104l165 966h272z" />
<glyph unicode="&#x1b0;" d="M708 153q-30 -38 -64 -70t-73 -55.5t-83.5 -36.5t-93.5 -12q-66 1 -115.5 20t-85.5 52t-58.5 77t-34.5 95t-13.5 107t4.5 112l107 640h271l-107 -643q-5 -42 -5.5 -83.5t11 -74.5t39.5 -54t80 -22q73 -2 129.5 28.5t98.5 88.5l133 760h272l-25 -141q63 29 96 89.5 t47 147.5l185 2q-14 -186 -105.5 -287t-252.5 -128l-133 -765h-245z" />
<glyph unicode="&#x1f0;" d="M384 1082h539l-188 -1107q-14 -105 -55.5 -183t-106.5 -129.5t-151.5 -76.5t-190.5 -25q-45 1 -90 5t-90 12l36 228q36 -8 73.5 -11.5t74.5 -4.5q92 -2 151 45.5t75 139.5l149 880h-266zM834 1379l165 124l238 3v-23l-320 -251h-171l-255 250l1 24l224 -2z" />
<glyph unicode="&#x1fa;" d="M774 304h-423l-136 -304h-297l715 1456h249l202 -1456h-281zM460 543h291l-51 533zM976 2134h277l-290 -204l-199 1zM612 1699q0 41 16 76t43.5 60.5t63.5 40t76 14.5q38 0 71.5 -13.5t58.5 -37.5t39.5 -57t14.5 -71q0 -41 -15.5 -75.5t-42.5 -59.5t-62.5 -39t-75.5 -14 q-38 0 -71.5 13t-59.5 36.5t-41 55.5t-15 71zM719 1699q-2 -16 1.5 -31t12.5 -26.5t22.5 -18t30.5 -6.5q19 0 36 8t30.5 21t22.5 30t12 35q5 33 -11.5 58.5t-51.5 25.5q-20 0 -37.5 -7.5t-31.5 -21t-23.5 -31t-12.5 -36.5z" />
<glyph unicode="&#x1fb;" d="M700 0q-8 26 -9.5 50.5t-0.5 50.5q-63 -59 -137.5 -90.5t-162.5 -30.5q-68 1 -129.5 23.5t-107 63t-70.5 98.5t-22 130t27.5 127t64.5 96t92 68.5t111 44.5t121.5 24t123.5 7l156 -2l13 67q6 39 -2.5 70t-29 52.5t-51.5 33t-70 12.5q-70 2 -117 -31.5t-61 -102.5l-271 -2 q6 90 51 155.5t113 108t150.5 62t163.5 18.5q85 -2 161 -27t131.5 -72.5t84 -117.5t19.5 -163l-75 -465q-9 -59 -13.5 -120.5t16.5 -119.5l-1 -18h-269zM461 194q71 -2 133.5 29t107.5 85l34 187l-123 1q-45 0 -91 -9t-85 -29.5t-66 -54.5t-34 -86q-4 -31 4 -54t25 -38 t41.5 -23t53.5 -8zM885 1812h277l-290 -204l-199 1zM521 1377q0 41 16 76t43.5 60.5t63.5 40t76 14.5q38 0 71.5 -13.5t58.5 -37.5t39.5 -57t14.5 -71q0 -41 -15.5 -75.5t-42.5 -59.5t-62.5 -39t-75.5 -14q-38 0 -71.5 13t-59.5 36.5t-41 55.5t-15 71zM628 1377 q-2 -16 1.5 -31t12.5 -26.5t22.5 -18t30.5 -6.5q19 0 36 8t30.5 21t22.5 30t12 35q5 33 -11.5 58.5t-51.5 25.5q-20 0 -37.5 -7.5t-31.5 -21t-23.5 -31t-12.5 -36.5z" />
<glyph unicode="&#x1fc;" d="M1039 0h-522l58 334h-204l-150 -334h-284l718 1456h616l-40 -228h-240l-64 -366h211l-40 -227h-210l-71 -409h261zM616 574l90 512l-230 -512h140zM976 1823h314l-313 -279h-227z" />
<glyph unicode="&#x1fd;" d="M751 -19q-36 1 -71 7.5t-66.5 21t-58.5 36t-47 52.5q-50 -53 -108.5 -86t-132.5 -32q-69 1 -121.5 24.5t-88 64.5t-52 97.5t-13.5 122.5q6 99 49 168.5t110.5 113t152 62t173.5 15.5h8l24 121q2 16 3 34.5t-3 35t-15 27.5t-33 12q-25 1 -42 -7t-28.5 -22.5t-18.5 -33.5 t-11 -40l-258 10q6 75 35.5 134.5t76.5 101t110.5 63t138.5 20.5q60 -1 116 -17.5t100 -58.5q52 37 108.5 56t120.5 17q81 -2 135.5 -39t85 -94.5t40 -128.5t2.5 -140l-38 -245h-436l-15 -92q-9 -75 23 -114.5t108 -41.5q52 -2 98.5 12.5t93.5 33.5l38 -194 q-30 -23 -65.5 -38.5t-74 -24t-78 -12t-75.5 -2.5zM720 642l196 1l15 114q2 20 1.5 41.5t-7 39t-21 29t-40.5 12.5q-37 1 -60 -15t-37.5 -42t-22 -57t-12.5 -60zM342 185q19 1 35.5 9t33.5 16l62 256l-4 1q-39 2 -74 -12.5t-63 -40t-46 -60t-22 -71.5q-3 -20 0.5 -38.5 t13 -32t25.5 -21t39 -6.5zM850 1502h314l-313 -279h-227z" />
<glyph unicode="&#x1fe;" d="M1124 622q-13 -81 -38 -161t-63.5 -152t-90 -133.5t-116.5 -105.5t-143 -68t-170 -22q-86 2 -151.5 27.5t-115.5 70.5l-125 -173h-193l221 307q-42 90 -53.5 196.5t2.5 212.5l33 212q12 80 36.5 159.5t61 151.5t86.5 134t113 106.5t140 69t168 22.5q81 -2 145.5 -25.5 t115.5 -64.5l95 132h194l-186 -257q25 -45 41.5 -96.5t24.5 -106.5t8 -112t-7 -113zM879 836q4 32 7 69t2 76l-499 -691q20 -35 52.5 -56.5t83.5 -23.5q54 -2 97 15.5t76.5 48.5t58.5 73t42.5 88.5t28.5 94.5t18 91zM366 620q-3 -24 -6 -51.5t-5 -57.5l481 667 q-21 29 -53 46.5t-79 19.5q-55 2 -97 -15.5t-73.5 -49t-54.5 -73t-38.5 -87.5t-25.5 -93.5t-16 -90.5zM876 1885h314l-313 -279h-227z" />
<glyph unicode="&#x1ff;" d="M91 544q14 114 59.5 216.5t118.5 179.5t172.5 121t221.5 41q105 -3 186 -41l100 154h166l-153 -236q74 -78 103.5 -189t16.5 -236l-3 -22q-14 -114 -59.5 -215.5t-118.5 -177.5t-172.5 -119.5t-220.5 -40.5q-49 1 -91.5 10t-79.5 24l-100 -154h-167l149 231 q-39 38 -67 86t-44 103.5t-21 117t2 126.5zM360 523q-5 -48 -4 -100.5t15 -99.5l347 536q-32 18 -75 19q-69 2 -118.5 -28t-83 -79t-53 -109t-26.5 -118zM809 553q5 42 5 89t-11 92l-338 -522q27 -11 63 -12q68 -2 117.5 28.5t83 79t52 108t26.5 116.5zM773 1497h314 l-313 -279h-227z" />
<glyph unicode="&#x218;" d="M827 387q7 52 -10.5 89t-50 63.5t-74.5 44.5t-83 32q-78 25 -153.5 63.5t-133.5 92.5t-91.5 126.5t-27.5 165.5q6 104 57 182t128 130t171.5 77t189.5 23q99 -2 183 -34t144 -90t92.5 -140t29.5 -184l-266 1q1 49 -11.5 90t-38 70t-64 45t-90.5 17q-44 1 -87.5 -10.5 t-79.5 -35t-61 -59t-31 -83.5q-6 -51 17 -86.5t61.5 -60t83.5 -41t82 -28.5q79 -27 151 -67.5t125.5 -96.5t83 -129.5t23.5 -164.5q-5 -71 -29 -129t-63.5 -103.5t-91 -79.5t-110.5 -55.5t-123 -31.5t-128 -9q-105 2 -196 34.5t-158 93.5t-103.5 147.5t-33.5 196.5l268 -1 q-3 -118 57.5 -182t181.5 -66q44 0 87.5 10.5t79.5 33t61 57t32 82.5zM615 -147q-11 -103 -61.5 -194t-129.5 -157l-113 80q43 62 73 127t42 140l10 72h186z" />
<glyph unicode="&#x219;" d="M767 303q5 25 -5 43.5t-28 32t-42.5 23t-49.5 16t-48.5 10.5t-39.5 8q-62 15 -129.5 38.5t-123 61t-90.5 92.5t-32 132q2 60 25 109.5t59.5 87.5t84 66t101 45.5t108.5 26t107 7.5q82 -1 160 -21.5t139.5 -63.5t99 -108.5t37.5 -156.5l-270 1q1 39 -12.5 67t-37.5 45.5 t-56.5 26t-69.5 8.5q-31 0 -66 -6t-66 -20.5t-53.5 -39t-28.5 -60.5q-7 -38 12 -61t49 -36.5t65 -20.5t61 -12q67 -13 140 -34.5t132.5 -58.5t97 -94t33.5 -141q-3 -63 -27 -112.5t-62.5 -87.5t-89 -64.5t-106 -43t-113 -23.5t-109.5 -6q-83 1 -163 24t-143.5 68.5t-103 113 t-39.5 159.5l257 -1q2 -44 19 -75t45.5 -50.5t65 -28.5t77.5 -9q31 0 68.5 5t71 18.5t58 37.5t31.5 62zM553 -147q-11 -103 -61.5 -194t-129.5 -157l-113 80q43 62 73 127t42 140l10 72h186z" />
<glyph unicode="&#x21a;" d="M1274 1227h-435l-213 -1227h-275l213 1227h-430l40 229h1141zM566 -124q-11 -103 -61.5 -194t-129.5 -157l-113 80q43 62 73 127t42 140l10 72h186z" />
<glyph unicode="&#x21b;" d="M762 1347l-46 -265h392l-36 -205h-392l-76 -466q-5 -43 -1.5 -79t19 -63t45 -43t76.5 -17q58 -2 115 7t114 21l9 -193q-36 -20 -76.5 -33t-83 -20t-85.5 -9.5t-83 -1.5q-91 1 -156.5 32.5t-106 85.5t-56 127.5t-6.5 159.5l81 492h-240l36 205h240l46 265h271zM628 -137 q-11 -103 -61.5 -194t-129.5 -157l-113 80q43 62 73 127t42 140l10 72h186z" />
<glyph unicode="&#x237;" d="M384 1082h539l-188 -1107q-14 -105 -55.5 -183t-106.5 -129.5t-151.5 -76.5t-190.5 -25q-45 1 -90 5t-90 12l36 228q36 -8 73.5 -11.5t74.5 -4.5q92 -2 151 45.5t75 139.5l149 880h-266z" />
<glyph unicode="&#x259;" d="M660 1102q113 -2 199.5 -44.5t143 -114t81 -166.5t14.5 -203l-5 -41q-13 -111 -58.5 -212.5t-118.5 -178t-171.5 -120.5t-216.5 -41q-107 3 -187 40.5t-131 103t-71 153.5t-8 191l24 158h675q3 52 -8.5 97t-38 78.5t-67 53t-95.5 21.5q-88 3 -167 -19.5t-157 -60.5 l-61 182q43 35 94.5 59t107 38.5t112 20.5t110.5 5zM548 202q52 -1 92.5 19t71.5 53.5t54 75.5t40 85h-410l-6 -28q-7 -44 -0.5 -81t26 -64t52.5 -43t80 -17z" />
<glyph unicode="&#x2bc;" d="M892 1388q-9 -58 -30 -112.5t-51.5 -104.5t-69 -94t-83.5 -81l-122 81q50 72 85.5 147t51.5 163l29 173h218z" />
<glyph unicode="&#x2c6;" d="M966 1274l-2 -30l-209 1l-126 126l-171 -125l-219 -2l2 32l313 240h155z" />
<glyph unicode="&#x2c7;" d="M739 1392l165 124l238 3v-23l-320 -251h-171l-255 250l1 24l224 -2z" />
<glyph unicode="&#x2d8;" d="M1072 1443q-5 -71 -34.5 -126.5t-77 -93t-109 -56.5t-130.5 -18q-67 1 -123.5 21.5t-97.5 58t-64 91.5t-22 123l193 -1q-2 -59 25 -96t92 -38t103 36t49 97z" />
<glyph unicode="&#x2d9;" d="M590 1358q0 32 11 58.5t30.5 46t46 30.5t58.5 11q30 1 56.5 -8.5t46.5 -27.5t31.5 -43.5t11.5 -56.5q0 -32 -11 -58.5t-30.5 -45.5t-46.5 -30t-58 -11q-30 -1 -56.5 8.5t-46 27.5t-31.5 43t-12 56z" />
<glyph unicode="&#x2da;" d="M500 1223q1 44 20 82t49.5 65.5t70 42.5t82.5 15q40 0 74.5 -14.5t60 -40t40 -60t13.5 -74.5q-2 -44 -20 -81t-47.5 -64t-68 -41.5t-81.5 -14.5q-40 0 -75.5 13.5t-62 38t-41.5 58.5t-14 75zM612 1226q-4 -38 18.5 -65.5t61.5 -27.5q21 0 39.5 8.5t32.5 22.5t23 33t11 39 q2 18 -2 35.5t-13.5 30.5t-25 21t-35.5 8q-21 0 -40 -8.5t-34 -23t-24.5 -33.5t-11.5 -40z" />
<glyph unicode="&#x2db;" d="M633 -3q-29 -13 -59.5 -29.5t-56 -38.5t-42.5 -50t-20 -63q-2 -27 8.5 -43t38.5 -18q20 -1 40.5 5.5t39.5 14.5l36 -157q-40 -22 -84.5 -32t-90.5 -9q-44 0 -81 14.5t-63.5 40.5t-41 62.5t-13.5 81.5q1 51 22.5 94.5t54.5 79t75 63t84 48.5z" />
<glyph unicode="&#x2dc;" d="M965 1514q-3 -46 -19 -90.5t-44 -80t-68 -57t-91 -21.5q-38 0 -71 14.5t-65 31.5t-64.5 31t-69.5 13q-45 -1 -69.5 -30t-35.5 -68l-134 29q4 45 21 89.5t45.5 80t69 57t90.5 21.5q37 0 70.5 -14.5t65.5 -31.5t64.5 -31t69.5 -13q45 1 70 29.5t36 67.5z" />
<glyph unicode="&#x2dd;" d="M906 1518h286l-343 -265h-227zM551 1518h273l-297 -265h-220z" />
<glyph unicode="&#x2f3;" d="M286 -228q0 34 14.5 63.5t37.5 51t54 33.5t64 12q31 0 59 -11t48.5 -30.5t32.5 -47t11 -59.5q-1 -34 -14.5 -62t-36.5 -48.5t-52.5 -32.5t-62.5 -12q-31 0 -59.5 10t-50 28.5t-34 45t-11.5 59.5zM393 -225q2 -20 10 -36t33 -16q23 1 41 18.5t21 39.5q4 20 -6 37.5 t-33 17.5q-14 0 -24.5 -5t-18 -14t-13.5 -20t-10 -22z" />
<glyph unicode="&#x300;" d="M-368 1210h-153l-151 350h206z" />
<glyph unicode="&#x301;" d="M-334 1561h232l-260 -352h-175z" />
<glyph unicode="&#x303;" d="M-45 1514q-3 -46 -19 -90.5t-44 -80t-68 -57t-91 -21.5q-38 0 -71 14.5t-65 31.5t-64.5 31t-69.5 13q-45 -1 -69.5 -30t-35.5 -68l-134 29q4 45 21 89.5t45.5 80t69 57t90.5 21.5q37 0 70.5 -14.5t65.5 -31.5t64.5 -31t69.5 -13q45 1 70 29.5t36 67.5z" />
<glyph unicode="&#x309;" d="M-574 1263l6 137q18 2 42.5 4.5t47 9.5t40 20.5t21.5 37.5q4 25 -9.5 37.5t-34 18t-44 6.5t-38.5 1l17 133q29 -1 65.5 -4t74 -10t73 -20t63 -33.5t43.5 -50t15 -70.5q-1 -35 -14.5 -61t-36 -44t-51.5 -29t-60 -17l-9 -67z" />
<glyph unicode="&#x30f;" d="M-370 1252h-244l-239 266h291zM-51 1252h-235l-191 266h281z" />
<glyph unicode="&#x323;" d="M-875 -229q0 33 12.5 60t34 46.5t50.5 30t61 10.5q31 0 59 -9t50 -26.5t35 -43t13 -58.5t-12.5 -60t-34.5 -46t-51 -29.5t-60 -10.5t-59 9t-50 26t-35 42.5t-13 58.5z" />
<glyph unicode="&#x384;" d="M823 1665h280l-281 -399h-147z" />
<glyph unicode="&#x385;" d="M833 1801h273l-219 -324h-153zM382 1349q0 29 10.5 53.5t29.5 42.5t44 28.5t53 11.5t53 -8.5t43.5 -26.5t30 -41t11.5 -52q0 -29 -11 -53t-29.5 -42t-43.5 -28t-53 -11q-27 -1 -52 8t-44 25.5t-30.5 40t-11.5 52.5zM914 1351q0 29 11 53.5t30 42.5t44 28t53 11t53 -8 t43.5 -26t30 -41t11.5 -52q0 -29 -10.5 -53.5t-29.5 -42.5t-44 -28.5t-53 -11.5t-53 8t-44 26t-30.5 41t-11.5 53z" />
<glyph unicode="&#x386;" d="M774 304h-423l-136 -304h-297l715 1456h249l202 -1456h-281zM460 543h291l-51 533zM296 1665h280l-281 -399h-147z" />
<glyph unicode="&#x387;" d="M558 696q0 33 11.5 61.5t32 49.5t49 33t61.5 12q32 1 59.5 -9.5t48.5 -30t33 -46.5t12 -60t-11.5 -61.5t-32.5 -49t-49 -32.5t-61 -12q-32 -1 -60 9.5t-48.5 29.5t-32.5 46t-12 60z" />
<glyph unicode="&#x388;" horiz-adv-x="1302" d="M1104 638h-580l-72 -411h679l-40 -227h-953l253 1456h950l-40 -229h-675l-64 -367h581zM133 1667h280l-281 -399h-147z" />
<glyph unicode="&#x389;" horiz-adv-x="1302" d="M1056 0h-271l110 631h-398l-110 -631h-272l252 1456h273l-104 -597h398l104 597h271zM157 1663h280l-281 -399h-147z" />
<glyph unicode="&#x38a;" horiz-adv-x="1302" d="M435 1456h819l-40 -227h-275l-174 -1003h276l-40 -226h-819l40 226h268l174 1003h-269zM204 1667h280l-281 -399h-147z" />
<glyph unicode="&#x38c;" horiz-adv-x="1222" d="M1139 622q-13 -81 -38 -161t-63.5 -152t-90 -133.5t-116.5 -105.5t-143 -68t-170 -22q-87 2 -154.5 29.5t-117 74t-81.5 108t-49 132t-20 146.5t7 151l33 212q12 80 36.5 159.5t61 151.5t86.5 134t113 106.5t140 69t168 22.5q88 -2 156.5 -29t120 -73.5t85.5 -108 t52.5 -132t22.5 -147.5t-6 -153zM894 836q5 37 8 81t0.5 88.5t-12.5 86.5t-31 75t-55 54t-85 23q-55 2 -97 -15.5t-73.5 -49t-54.5 -73t-38.5 -87.5t-25.5 -93.5t-16 -90.5l-33 -215q-5 -35 -8.5 -78t-3 -88t8.5 -88t27 -77t51.5 -55.5t83.5 -23.5q54 -2 97 15.5t76.5 48.5 t58.5 73t42.5 88.5t28.5 94.5t18 91zM142 1665h280l-281 -399h-147z" />
<glyph unicode="&#x38e;" horiz-adv-x="1302" d="M736 787l394 669h313l-618 -965l-86 -491h-273l91 530l-271 926h288zM90 1665h280l-281 -399h-147z" />
<glyph unicode="&#x38f;" horiz-adv-x="1222" d="M616 271q48 21 84 56t63 79t45.5 95t31.5 103.5t21 103.5t14 97l7 54q4 31 7 71.5t1.5 83t-9 83.5t-25.5 73.5t-48 53.5t-76 23q-50 2 -89 -15t-69 -47.5t-52 -71.5t-37 -85t-24.5 -89t-14.5 -83l-6 -52q-4 -32 -11 -78.5t-11.5 -99t-4.5 -107t9.5 -103t31 -86.5 t59.5 -58l-44 -272h-457l41 228l259 3q-103 123 -147 268t-25 306l6 51q11 79 36 156t63.5 146.5t90 129t115.5 102t140 65.5t164 21q84 -2 150.5 -28t117 -70.5t85 -104t54 -127.5t24.5 -142t-3 -148l-7 -51q-12 -90 -43 -174t-78.5 -158.5t-111 -137.5t-141.5 -111l268 4 l-41 -228h-457zM187 1665h280l-281 -399h-147z" />
<glyph unicode="&#x390;" d="M257 1082h548l-121 -723q-4 -35 -1.5 -62.5t14 -46.5t34.5 -29t60 -10q42 1 79 13.5t73 31.5l24 -203q-56 -40 -115.5 -57.5t-127.5 -16.5q-89 2 -152.5 28.5t-102.5 75t-53.5 117.5t-5.5 155l82 500h-275zM778 1728h273l-219 -324h-153zM327 1276q0 29 10.5 53.5 t29.5 42.5t44 28.5t53 11.5t53 -8.5t43.5 -26.5t30 -41t11.5 -52q0 -29 -11 -53t-29.5 -42t-43.5 -28t-53 -11q-27 -1 -52 8t-44 25.5t-30.5 40t-11.5 52.5zM859 1278q0 29 11 53.5t30 42.5t44 28t53 11t53 -8t43.5 -26t30 -41t11.5 -52q0 -29 -10.5 -53.5t-29.5 -42.5 t-44 -28.5t-53 -11.5t-53 8t-44 26t-30.5 41t-11.5 53z" />
<glyph unicode="&#x391;" d="M774 304h-423l-136 -304h-297l715 1456h249l202 -1456h-281zM460 543h291l-51 533z" />
<glyph unicode="&#x392;" d="M20 0l253 1456l460 -1q92 -2 178 -23.5t151 -68t101 -119.5t28 -178q-5 -60 -26 -109.5t-55.5 -88.5t-80 -69.5t-98.5 -52.5q50 -18 85.5 -50t57.5 -73t31 -89.5t6 -98.5q-8 -115 -57 -198t-125.5 -136t-174.5 -77.5t-203 -23.5h-531zM407 642l-72 -415l229 -2 q50 1 96.5 14t84 39.5t62.5 65.5t33 92q14 94 -29 147.5t-137 57.5zM442 845l191 -2q49 0 96 11t85.5 35t64.5 61.5t34 91.5q7 50 -5 84.5t-38 56t-64 32t-83 11.5l-214 1z" />
<glyph unicode="&#x393;" d="M1160 1228h-641l-213 -1228h-274l253 1456h915z" />
<glyph unicode="&#x395;" d="M1004 638h-580l-72 -411h679l-40 -227h-953l253 1456h950l-40 -229h-675l-64 -367h581z" />
<glyph unicode="&#x396;" d="M368 227h693l-35 -227h-1034l29 183l841 1044h-677l37 229h1014l-27 -178z" />
<glyph unicode="&#x397;" d="M956 0h-271l110 631h-398l-110 -631h-272l252 1456h273l-104 -597h398l104 597h271z" />
<glyph unicode="&#x398;" d="M797 614h-378l39 223h378zM1130 622q-13 -81 -38 -161t-63.5 -152t-90 -133.5t-116.5 -105.5t-143 -68t-170 -22q-87 2 -154.5 29.5t-117 74t-81.5 108t-49 132t-20 146.5t7 151l33 212q12 80 36.5 159.5t61 151.5t86.5 134t113 106.5t140 69t168 22.5q88 -2 156.5 -29 t120 -73.5t85.5 -108t52.5 -132t22.5 -147.5t-6 -153zM885 836q5 37 8 81t0.5 88.5t-12.5 86.5t-31 75t-55 54t-85 23q-55 2 -97 -15.5t-73.5 -49t-54.5 -73t-38.5 -87.5t-25.5 -93.5t-16 -90.5l-33 -215q-5 -35 -8.5 -78t-3 -88t8.5 -88t27 -77t51.5 -55.5t83.5 -23.5 q54 -2 97 15.5t76.5 48.5t58.5 73t42.5 88.5t28.5 94.5t18 91z" />
<glyph unicode="&#x399;" d="M335 1456h819l-40 -227h-275l-174 -1003h276l-40 -226h-819l40 226h268l174 1003h-269z" />
<glyph unicode="&#x39a;" d="M556 595l-188 -177l-72 -418h-276l253 1456h275l-114 -653l157 175l419 478h352l-599 -656l348 -800h-311z" />
<glyph unicode="&#x39b;" d="M681 1076l-474 -1076h-294l688 1456h277l183 -1456h-279z" />
<glyph unicode="&#x39c;" d="M608 1456l38 -543l246 543h344l-253 -1456h-252l77 442l124 648l-285 -610h-137l-61 615l-106 -675l-73 -420h-252l253 1456h337z" />
<glyph unicode="&#x39d;" d="M955 0h-267l-232 949l-165 -949h-276l252 1456h271l229 -945l166 945h275z" />
<glyph unicode="&#x39e;" d="M52 226h948l-40 -226h-947zM265 849h735l-39 -219h-735zM284 1456h894l-40 -228h-894z" />
<glyph unicode="&#x39f;" d="M1119 622q-13 -81 -38 -161t-63.5 -152t-90 -133.5t-116.5 -105.5t-143 -68t-170 -22q-87 2 -154.5 29.5t-117 74t-81.5 108t-49 132t-20 146.5t7 151l33 212q12 80 36.5 159.5t61 151.5t86.5 134t113 106.5t140 69t168 22.5q88 -2 156.5 -29t120 -73.5t85.5 -108 t52.5 -132t22.5 -147.5t-6 -153zM874 836q5 37 8 81t0.5 88.5t-12.5 86.5t-31 75t-55 54t-85 23q-55 2 -97 -15.5t-73.5 -49t-54.5 -73t-38.5 -87.5t-25.5 -93.5t-16 -90.5l-33 -215q-5 -35 -8.5 -78t-3 -88t8.5 -88t27 -77t51.5 -55.5t83.5 -23.5q54 -2 97 15.5t76.5 48.5 t58.5 73t42.5 88.5t28.5 94.5t18 91z" />
<glyph unicode="&#x3a0;" d="M959 0h-274l213 1228h-398l-213 -1228h-274l252 1456h947z" />
<glyph unicode="&#x3a1;" d="M407 534l-93 -534h-274l252 1456l469 -1q101 -3 185 -36t143.5 -93t89 -144t20.5 -188q-9 -112 -59.5 -197.5t-128.5 -144t-176.5 -89t-203.5 -30.5zM446 762l200 -3q53 1 100 17.5t84 46.5t61.5 73t31.5 97q6 47 -1 88.5t-28.5 73t-57.5 51t-86 21.5l-223 1z" />
<glyph unicode="&#x3a3;" d="M854 725l-436 -500h628l-39 -224h-1004l28 162l536 582l-336 571l25 140h975l-40 -228h-612l276 -485z" />
<glyph unicode="&#x3a4;" d="M1274 1227h-435l-213 -1227h-275l213 1227h-430l40 229h1141z" />
<glyph unicode="&#x3a5;" d="M636 787l394 669h313l-618 -965l-86 -491h-273l91 530l-271 926h288z" />
<glyph unicode="&#x3a6;" d="M889 1258q99 -17 170.5 -66.5t116 -121.5t61.5 -160.5t8 -182.5q-11 -110 -53.5 -203.5t-111.5 -164t-161.5 -114.5t-202.5 -56l-39 -189h-273l39 191q-98 15 -170 63t-117 118t-63 157.5t-9 181.5q11 111 53.5 206.5t111.5 167.5t162 117.5t205 57.5l40 196h274z M353 709q-5 -42 -4 -84.5t14 -80t39 -66.5t71 -45l114 585q-54 -16 -95 -46t-69.5 -70.5t-45.5 -89.5t-24 -103zM975 728q5 42 4.5 86t-12.5 83.5t-37.5 70.5t-70.5 48l-114 -584q52 15 92 43.5t68.5 67.5t45.5 86t24 99z" />
<glyph unicode="&#x3a7;" d="M652 936l332 520h334l-519 -734l288 -722h-307l-176 528l-340 -528h-336l531 746l-280 710h308z" />
<glyph unicode="&#x3a8;" d="M773 572q54 17 91 49t61 74.5t37.5 92.5t21.5 102l96 566h275l-96 -566q-16 -111 -55 -204.5t-102.5 -164.5t-152 -116.5t-203.5 -59.5l-67 -345h-273l67 346q-107 15 -180 64.5t-115.5 123t-56 165.5t-1.5 191l95 566h274l-95 -567q-6 -44 -8 -91.5t7.5 -91t34 -78.5 t72.5 -54l159 882h273z" />
<glyph unicode="&#x3aa;" d="M335 1456h819l-40 -227h-275l-174 -1003h276l-40 -226h-819l40 226h268l174 1003h-269zM402 1710q0 28 10.5 51.5t28.5 40.5t42 27t51 11q26 0 50 -8.5t42.5 -25t29.5 -39t11 -49.5q0 -28 -10.5 -51t-28.5 -40.5t-41.5 -27t-50.5 -10.5q-27 0 -51 8.5t-42.5 24.5 t-29.5 38.5t-11 49.5zM868 1710q0 28 10 51t28 40.5t42 27t51 10.5q26 0 50 -8.5t42.5 -24.5t30 -38.5t11.5 -49.5q0 -28 -10.5 -51.5t-28.5 -41t-42 -27.5t-51 -11q-27 0 -51 8.5t-42 25t-29 39.5t-11 50z" />
<glyph unicode="&#x3ab;" d="M636 787l394 669h313l-618 -965l-86 -491h-273l91 530l-271 926h288zM428 1710q0 28 10.5 51.5t28.5 40.5t42 27t51 11q26 0 50 -8.5t42.5 -25t29.5 -39t11 -49.5q0 -28 -10.5 -51t-28.5 -40.5t-41.5 -27t-50.5 -10.5q-27 0 -51 8.5t-42.5 24.5t-29.5 38.5t-11 49.5z M894 1710q0 28 10 51t28 40.5t42 27t51 10.5q26 0 50 -8.5t42.5 -24.5t30 -38.5t11.5 -49.5q0 -28 -10.5 -51.5t-28.5 -41t-42 -27.5t-51 -11q-27 0 -51 8.5t-42 25t-29 39.5t-11 50z" />
<glyph unicode="&#x3ac;" d="M1082 1082l-129 -762q-2 -15 -3.5 -33t1.5 -34t12.5 -28t29.5 -13q11 -2 21 0t21 4l2 -212q-53 -25 -117 -23q-37 0 -72 8t-64.5 24.5t-52.5 43t-36 63.5q-59 -66 -130 -104t-162 -36q-70 1 -122.5 25t-89.5 64t-60 92t-34.5 110t-13 119t4.5 118l2 22q8 64 25 132 t43.5 132.5t64.5 121t87.5 99t112.5 66t140 21.5q78 -2 141.5 -36.5t104.5 -101.5l80 118h193zM361 505q-3 -27 -5 -59t-0.5 -65t8 -64.5t22 -56t40 -40t62.5 -16.5q54 -2 99 17t83 55q2 12 4 23.5t4 23.5l86 483q-26 39 -65.5 55.5t-86.5 18.5q-45 1 -79.5 -15.5t-61 -44 t-45 -63.5t-31.5 -75.5t-20.5 -80t-11.5 -75.5zM781 1676h280l-281 -399h-147z" />
<glyph unicode="&#x3ad;" d="M624 459q-39 0 -83.5 -4t-84 -18.5t-68.5 -42.5t-36 -76q-6 -41 14 -66t53 -39t71 -19t67 -5q35 -1 77 4t80.5 19.5t67.5 40.5t38 67h272q-5 -65 -31 -116t-67 -89t-93 -64.5t-110 -42.5t-117.5 -22.5t-115.5 -5.5q-49 1 -104 7.5t-109.5 20.5t-104 38t-87 59t-58 82.5 t-17.5 110.5q3 56 24.5 98.5t56 74t79.5 53.5t93 39q-32 16 -59.5 37.5t-48.5 48.5t-32.5 59t-10.5 70q2 67 28 117.5t68.5 86.5t97 59.5t113.5 37t119 18.5t113 4q77 -2 155.5 -20.5t142.5 -58t104.5 -101.5t40.5 -151l-268 1q-1 37 -21 60.5t-49.5 36t-64.5 17t-65 4.5 q-34 0 -74.5 -4.5t-76.5 -19t-63 -40t-34 -66.5q-7 -39 11 -61.5t47 -33.5t64 -14t62 -4h238l-33 -188zM812 1675h280l-281 -399h-147z" />
<glyph unicode="&#x3ae;" d="M459 1083l-24 -159q64 82 149 131t192 47q92 -2 154 -36.5t98 -92t47.5 -133t2.5 -158.5l-186 -1097h-273l187 1098q5 41 -0.5 76t-22.5 60.5t-47 40t-74 16.5q-66 2 -123 -20t-107 -64l-140 -792h-272l188 1082zM796 1676h280l-281 -399h-147z" />
<glyph unicode="&#x3af;" d="M257 1082h548l-121 -723q-4 -35 -1.5 -62.5t14 -46.5t34.5 -29t60 -10q42 1 79 13.5t73 31.5l24 -203q-56 -40 -115.5 -57.5t-127.5 -16.5q-89 2 -152.5 28.5t-102.5 75t-53.5 117.5t-5.5 155l82 500h-275zM781 1656h280l-281 -399h-147z" />
<glyph unicode="&#x3b0;" d="M477 1082l-104 -627q-5 -45 -3 -90t18 -81t48 -59.5t87 -24.5q46 -1 83 16t66 46t51 67t37.5 79.5t25 83.5t15.5 79q18 128 15 258t-34 255l254 -1q40 -123 45 -254t-11 -258q-15 -118 -55 -226.5t-108 -190.5t-166 -130t-229 -46q-110 2 -192.5 37t-135 97t-74 150 t-9.5 197l104 623h272zM758 1740h273l-219 -324h-153zM307 1288q0 29 10.5 53.5t29.5 42.5t44 28.5t53 11.5t53 -8.5t43.5 -26.5t30 -41t11.5 -52q0 -29 -11 -53t-29.5 -42t-43.5 -28t-53 -11q-27 -1 -52 8t-44 25.5t-30.5 40t-11.5 52.5zM839 1290q0 29 11 53.5t30 42.5 t44 28t53 11t53 -8t43.5 -26t30 -41t11.5 -52q0 -29 -10.5 -53.5t-29.5 -42.5t-44 -28.5t-53 -11.5t-53 8t-44 26t-30.5 41t-11.5 53z" />
<glyph unicode="&#x3b1;" d="M1082 1082l-129 -762q-2 -15 -3.5 -33t1.5 -34t12.5 -28t29.5 -13q11 -2 21 0t21 4l2 -212q-53 -25 -117 -23q-37 0 -72 8t-64.5 24.5t-52.5 43t-36 63.5q-59 -66 -130 -104t-162 -36q-70 1 -122.5 25t-89.5 64t-60 92t-34.5 110t-13 119t4.5 118l2 22q8 64 25 132 t43.5 132.5t64.5 121t87.5 99t112.5 66t140 21.5q78 -2 141.5 -36.5t104.5 -101.5l80 118h193zM361 505q-3 -27 -5 -59t-0.5 -65t8 -64.5t22 -56t40 -40t62.5 -16.5q54 -2 99 17t83 55q2 12 4 23.5t4 23.5l86 483q-26 39 -65.5 55.5t-86.5 18.5q-45 1 -79.5 -15.5t-61 -44 t-45 -63.5t-31.5 -75.5t-20.5 -80t-11.5 -75.5z" />
<glyph unicode="&#x3b2;" d="M753 1477q87 -2 163 -28t131 -74.5t84 -120t22 -164.5q-5 -57 -24.5 -104.5t-51.5 -87.5t-73.5 -72.5t-89.5 -58.5q51 -24 87.5 -60t59 -81t31 -96.5t4.5 -106.5q-8 -102 -47 -185t-103 -141.5t-150.5 -89.5t-188.5 -29q-147 2 -270 82l-88 -462h-270l246 1440 q14 99 61 180.5t117.5 140t160.5 89.5t189 29zM651 857q100 2 157 59.5t68 154.5q4 37 -3.5 70t-26 57.5t-47.5 39.5t-68 16q-48 1 -87.5 -15.5t-70 -46t-50.5 -69.5t-27 -84l-133 -775q41 -36 94 -50t107 -14q51 0 96 16t80.5 45.5t59 71.5t30.5 93q6 44 0 84t-25 71 t-52 50t-81 21l-114 1l30 205z" />
<glyph unicode="&#x3b3;" d="M967 1082h293l-624 -1077l-73 -422h-271l79 454l-244 1045h274l137 -773l1 -67l30 73z" />
<glyph unicode="&#x3b4;" d="M343 1243q4 87 43 149.5t99 103t136 59t154 17.5q39 -1 77.5 -8t75.5 -18t73.5 -25t72.5 -29l-60 -183q-56 20 -112.5 37t-116.5 16q-28 0 -57.5 -6t-56 -19t-45.5 -34t-26 -52q-6 -28 5 -49.5t31 -38t44.5 -28t44.5 -20.5q94 -40 170 -94t126.5 -124t73.5 -157.5 t12 -194.5l-2 -21q-14 -116 -62.5 -216.5t-125 -174t-178 -115t-222.5 -38.5q-114 2 -201.5 43.5t-144.5 112.5t-82 166t-15 205l2 21q10 82 42 155.5t83.5 131t119.5 97.5t150 56l11 21q-69 42 -106 107.5t-33 146.5zM350 527q-6 -53 -2 -110t23.5 -104.5t59.5 -78.5 t106 -33q70 -2 122.5 27.5t89 78t58 109.5t30.5 121l3 19q5 45 -3 98.5t-30.5 100.5t-60 81t-91.5 41q-45 6 -84 -6t-71 -36.5t-57.5 -58.5t-44 -72.5t-30 -79t-16.5 -77.5z" />
<glyph unicode="&#x3b5;" d="M624 459q-39 0 -83.5 -4t-84 -18.5t-68.5 -42.5t-36 -76q-6 -41 14 -66t53 -39t71 -19t67 -5q35 -1 77 4t80.5 19.5t67.5 40.5t38 67h272q-5 -65 -31 -116t-67 -89t-93 -64.5t-110 -42.5t-117.5 -22.5t-115.5 -5.5q-49 1 -104 7.5t-109.5 20.5t-104 38t-87 59t-58 82.5 t-17.5 110.5q3 56 24.5 98.5t56 74t79.5 53.5t93 39q-32 16 -59.5 37.5t-48.5 48.5t-32.5 59t-10.5 70q2 67 28 117.5t68.5 86.5t97 59.5t113.5 37t119 18.5t113 4q77 -2 155.5 -20.5t142.5 -58t104.5 -101.5t40.5 -151l-268 1q-1 37 -21 60.5t-49.5 36t-64.5 17t-65 4.5 q-34 0 -74.5 -4.5t-76.5 -19t-63 -40t-34 -66.5q-7 -39 11 -61.5t47 -33.5t64 -14t62 -4h238l-33 -188z" />
<glyph unicode="&#x3b6;" d="M1186 1456l-30 -170l-466 -418q-55 -47 -111 -93t-104 -98t-82 -113t-44 -138q-11 -77 16.5 -122t103.5 -65l173 -39q49 -12 94.5 -30.5t80.5 -47t54.5 -69.5t16.5 -99q-3 -54 -28 -103.5t-61.5 -94t-80.5 -81.5t-86 -65l-137 117q17 18 35 37.5t34 41.5t27.5 45t16.5 49 q4 21 -1.5 36t-16.5 25.5t-27.5 17t-35.5 11.5l-160 32q-72 16 -130.5 46t-98 75.5t-58 106t-11.5 137.5q9 100 52 183t104.5 155t134.5 136t143 124l268 247h-585l40 224h960z" />
<glyph unicode="&#x3b7;" d="M459 1083l-24 -159q64 82 149 131t192 47q92 -2 154 -36.5t98 -92t47.5 -133t2.5 -158.5l-186 -1097h-273l187 1098q5 41 -0.5 76t-22.5 60.5t-47 40t-74 16.5q-66 2 -123 -20t-107 -64l-140 -792h-272l188 1082z" />
<glyph unicode="&#x3b8;" d="M1052 522q-16 -108 -54.5 -207t-102 -175t-154.5 -120t-211 -41q-76 2 -135.5 24t-103.5 60t-73 89t-44.5 110.5t-18.5 125.5t5 133l64 405q16 107 54.5 207.5t102.5 178t155.5 123t212.5 42.5q115 -3 191 -52t119.5 -126.5t56.5 -175t1 -197.5zM799 633h-350l-24 -160 q-5 -43 -7 -90t9 -87t39.5 -66.5t84.5 -29.5q60 -2 100 21.5t65.5 63t38.5 89t20 99.5zM485 848h350l18 129q5 42 7 90t-9 88.5t-39.5 68t-84.5 30.5q-60 2 -100 -22.5t-65.5 -64.5t-38.5 -90.5t-20 -99.5z" />
<glyph unicode="&#x3b9;" d="M257 1082h548l-121 -723q-4 -35 -1.5 -62.5t14 -46.5t34.5 -29t60 -10q42 1 79 13.5t73 31.5l24 -203q-56 -40 -115.5 -57.5t-127.5 -16.5q-89 2 -152.5 28.5t-102.5 75t-53.5 117.5t-5.5 155l82 500h-275z" />
<glyph unicode="&#x3ba;" d="M564 424l-195 -147l-48 -277h-271l187 1082h272l-81 -461l108 108l352 353h358l-464 -460l278 -622h-332z" />
<glyph unicode="&#x3bb;" d="M224 0h-303l564 1070l-15 60q-7 28 -18 59.5t-28.5 58.5t-42.5 45.5t-59 20.5q-20 2 -40 0l-40 -4l16 210q37 10 75 15.5t76 4.5q59 -2 107 -25t85.5 -60.5t63 -86.5t39.5 -102l187 -883q4 -22 10.5 -50.5t18.5 -54.5t30 -45t47 -22q11 -2 23 -0.5t23 2.5l-29 -220 q-19 -5 -38 -7.5t-39 -2.5q-64 1 -115 24.5t-89 63t-63.5 91.5t-38.5 110l-80 441l-57 -150z" />
<glyph unicode="&#x3bc;" d="M521 1082l-102 -622q-5 -42 -6 -86.5t10 -81t39 -61t82 -25.5q70 -2 125 25t98 81l135 770h272l-188 -1082h-242l9 72q-51 -45 -108 -69t-126 -24q-95 0 -173 50l-85 -445h-271l260 1498h271z" />
<glyph unicode="&#x3bd;" d="M537 321l2 -73l28 81l345 753h291l-568 -1082h-254l-232 1082l269 1z" />
<glyph unicode="&#x3be;" d="M1134 1210q-52 15 -104 26.5t-107 11.5q-42 0 -93 -4t-97.5 -20t-81 -46.5t-43.5 -82.5q-6 -35 3.5 -59.5t29 -41t47 -26.5t57 -15t59 -7t53.5 -2h159l-40 -230l-126 1q-70 0 -142.5 -11t-133 -40.5t-103.5 -81.5t-53 -134q-8 -57 11 -96t54 -65.5t81 -42.5t92 -27 l92 -23q50 -13 96 -30.5t80.5 -45t54 -68t16.5 -100.5q-3 -54 -28.5 -104.5t-63 -94.5t-82.5 -81t-87 -64l-127 115q17 18 35 37.5t33 41.5t26.5 45.5t15.5 49.5q3 20 -3 34.5t-17.5 24.5t-27.5 17t-32 12l-57 17q-60 18 -117.5 37t-108 43.5t-91.5 56.5t-69.5 75t-42 99.5 t-7.5 129.5q6 83 39 146t84.5 110.5t117.5 80t140 55.5q-41 17 -76 41.5t-60 56t-38.5 71t-11.5 86.5q4 74 30 131.5t68.5 101t98.5 73.5t118.5 48.5t128 26.5t128.5 8q148 -1 289 -51z" />
<glyph unicode="&#x3bf;" d="M91 544q14 114 59.5 216.5t118.5 179.5t172.5 121t221.5 41q117 -2 201 -48t136.5 -121.5t72.5 -173.5t9 -205l-3 -22q-14 -114 -59.5 -215.5t-118.5 -177.5t-172.5 -119.5t-220.5 -40.5q-116 2 -200 47.5t-136.5 120t-73 172t-9.5 204.5zM360 523q-5 -50 -4 -105.5 t17.5 -103t53 -80t101.5 -34.5q68 -2 117.5 28.5t83 79t52 108t26.5 116.5l2 21q3 33 4.5 69.5t-3 72t-15 68t-30 57.5t-49.5 40.5t-73 17.5q-69 2 -118.5 -28t-83 -79t-53 -109t-26.5 -118z" />
<glyph unicode="&#x3c0;" d="M1209 868h-149l-92 -548q-2 -22 -3 -42t4.5 -35t19 -24t40.5 -9q24 0 45.5 6t44.5 15l26 -193q-49 -29 -99.5 -43.5t-107.5 -12.5q-75 1 -124.5 26t-77.5 68t-36.5 101.5t-2.5 128.5l92 562h-245l-150 -868h-272l151 868h-130l37 214h1067z" />
<glyph unicode="&#x3c1;" d="M1071 517q-8 -66 -25.5 -132t-45.5 -126.5t-67 -112.5t-89.5 -90t-113.5 -59t-139 -19q-81 2 -150 34t-118 98l-100 -526h-271l170 992q16 111 63 208t119.5 169t170 112t215.5 37q79 -2 140 -25.5t106.5 -63t75 -93t46 -115.5t20 -130t-3.5 -136zM803 538q3 30 5 66.5 t0 73.5t-10 72.5t-25 63.5t-45 45.5t-70 19.5q-65 2 -111 -28.5t-77.5 -78t-50 -105t-28.5 -109.5l-8 -7h6l-43 -243q27 -57 76.5 -81.5t112.5 -25.5q66 -2 113.5 26.5t79 74t49 102.5t24.5 113z" />
<glyph unicode="&#x3c2;" d="M654 1102q96 -2 174 -31.5t133 -83.5t84 -131.5t25 -174.5l-255 1q4 90 -42 142t-139 54q-69 2 -119.5 -26.5t-85 -75t-54.5 -105.5t-28 -118l-4 -30q-7 -60 -1.5 -110.5t27 -90t61.5 -66.5t103 -39q39 -7 81.5 -16t83 -22.5t76.5 -32.5t63 -47t42 -66t13 -88 q-2 -72 -34.5 -130t-82 -104t-110.5 -80.5t-121 -59.5l-106 158q28 11 58 28t56 40t44.5 51t23.5 60q5 29 -9 46t-36.5 27t-48.5 14.5t-46 8.5q-105 19 -185.5 62.5t-133.5 109t-76 152.5t-13 194l4 31q13 115 59.5 216t121.5 176t175.5 117.5t221.5 39.5z" />
<glyph unicode="&#x3c3;" d="M1168 856l-246 -2q56 -77 86 -160.5t22 -180.5l-2 -22q-12 -109 -56.5 -203.5t-116 -164t-167 -108.5t-208.5 -36q-117 3 -200.5 49t-134.5 121.5t-71 173t-9 204.5l2 22q14 115 60 213t120 169t172.5 111.5t217.5 40.5l571 -1zM337 524q-5 -50 -4.5 -105.5t16.5 -103.5 t51.5 -80t100.5 -34q45 -1 80.5 12.5t63.5 38t48.5 58t35 70.5t23 76t13.5 76l2 21q5 46 4 98.5t-16 97.5t-49 75.5t-94 32.5q-66 2 -114 -25.5t-81 -72.5t-52 -101.5t-26 -112.5z" />
<glyph unicode="&#x3c4;" d="M1047 851h-330l-77 -472q-4 -36 -3.5 -67t11.5 -54.5t34 -37t64 -13.5q42 0 80 11t76 25l10 -211q-57 -29 -115.5 -41.5t-122.5 -10.5q-92 2 -154 33t-99 85t-49 126.5t-3 158.5l77 468h-340l40 231h942z" />
<glyph unicode="&#x3c5;" d="M477 1082l-104 -627q-5 -45 -3 -90t18 -81t48 -59.5t87 -24.5q46 -1 83 16t66 46t51 67t37.5 79.5t25 83.5t15.5 79q18 128 15 258t-34 255l254 -1q40 -123 45 -254t-11 -258q-15 -118 -55 -226.5t-108 -190.5t-166 -130t-229 -46q-110 2 -192.5 37t-135 97t-74 150 t-9.5 197l104 623h272z" />
<glyph unicode="&#x3c6;" d="M395 -6q-102 24 -170 80.5t-106 133t-49 168.5t0 188q9 79 32.5 153.5t60.5 142.5t87.5 127.5t113.5 107.5l173 -156q-74 -78 -125.5 -173.5t-69.5 -202.5q-7 -43 -10 -90t4 -92t27.5 -84t60.5 -66l100 571q8 63 35 117.5t69.5 94t98.5 61t122 20.5q71 -1 125 -25 t93.5 -63.5t65.5 -92t39.5 -111t16.5 -120.5t-4 -120q-13 -113 -52.5 -210t-105 -172t-156 -124.5t-204.5 -67.5l-88 -467h-272zM695 224q51 24 88.5 59.5t64 79.5t42 94.5t21.5 105.5q1 11 4 38t4.5 61t1 71.5t-6.5 68t-18.5 50t-34.5 19.5q-29 -1 -42.5 -21t-18.5 -44z " />
<glyph unicode="&#x3c7;" d="M632 745l283 337h306l-444 -542l273 -540h-277l-186 353l-294 -353h-308l460 562l-263 520h277z" />
<glyph unicode="&#x3c8;" d="M845 1082l-155 -858q58 25 100 64t71.5 87t48 104t27.5 116q19 121 22.5 244.5t-13.5 244.5l246 -1q30 -119 31 -243t-16 -245q-15 -119 -56.5 -221.5t-109 -182t-162.5 -132t-217 -70.5l-88 -467h-271l88 471q-108 25 -176.5 84.5t-105.5 140t-45.5 176.5t3.5 196 l83 492h273l-83 -496q-6 -44 -9.5 -94.5t2.5 -99t26 -92t61 -71.5l154 853h271z" />
<glyph unicode="&#x3c9;" d="M489 1081q-26 -63 -53.5 -126t-51.5 -127.5t-43 -130.5t-28 -134q-2 -10 -6 -40t-8.5 -69.5t-7 -83.5t-1.5 -81t8 -62.5t23 -27.5q25 -4 43.5 12.5t32 44t22.5 62.5t15 68.5t8.5 61t4.5 40.5l54 346h285l-54 -346q-1 -10 -4 -34.5t-5.5 -56.5t-3 -66.5t4 -63t15.5 -47.5 t32 -20q23 -1 40 22.5t29 60t20 81t13 85.5t7.5 74t4.5 47q16 128 16.5 257.5t-27.5 256.5l253 -1q38 -125 39.5 -254.5t-14.5 -257.5q-7 -56 -19 -122.5t-31.5 -133t-48.5 -128.5t-70.5 -108.5t-98.5 -74t-131 -24.5q-42 1 -76.5 15.5t-61.5 39t-45.5 58t-28.5 72.5 q-22 -37 -48 -71t-57 -60t-69 -41t-84 -14q-71 1 -119 31t-77.5 78.5t-43 109.5t-17 125.5t0.5 126t10 111.5q17 140 65 269.5t119 250.5h268z" />
<glyph unicode="&#x3ca;" d="M257 1082h548l-121 -723q-4 -35 -1.5 -62.5t14 -46.5t34.5 -29t60 -10q42 1 79 13.5t73 31.5l24 -203q-56 -40 -115.5 -57.5t-127.5 -16.5q-89 2 -152.5 28.5t-102.5 75t-53.5 117.5t-5.5 155l82 500h-275zM367 1367q0 28 10.5 51.5t28.5 40.5t42 27t51 11q26 0 50 -8.5 t42.5 -25t29.5 -39t11 -49.5q0 -28 -10.5 -51t-28.5 -40.5t-41.5 -27t-50.5 -10.5q-27 0 -51 8.5t-42.5 24.5t-29.5 38.5t-11 49.5zM833 1367q0 28 10 51t28 40.5t42 27t51 10.5q26 0 50 -8.5t42.5 -24.5t30 -38.5t11.5 -49.5q0 -28 -10.5 -51.5t-28.5 -41t-42 -27.5 t-51 -11q-27 0 -51 8.5t-42 25t-29 39.5t-11 50z" />
<glyph unicode="&#x3cb;" d="M477 1082l-104 -627q-5 -45 -3 -90t18 -81t48 -59.5t87 -24.5q46 -1 83 16t66 46t51 67t37.5 79.5t25 83.5t15.5 79q18 128 15 258t-34 255l254 -1q40 -123 45 -254t-11 -258q-15 -118 -55 -226.5t-108 -190.5t-166 -130t-229 -46q-110 2 -192.5 37t-135 97t-74 150 t-9.5 197l104 623h272zM347 1379q0 28 10.5 51.5t28.5 40.5t42 27t51 11q26 0 50 -8.5t42.5 -25t29.5 -39t11 -49.5q0 -28 -10.5 -51t-28.5 -40.5t-41.5 -27t-50.5 -10.5q-27 0 -51 8.5t-42.5 24.5t-29.5 38.5t-11 49.5zM813 1379q0 28 10 51t28 40.5t42 27t51 10.5 q26 0 50 -8.5t42.5 -24.5t30 -38.5t11.5 -49.5q0 -28 -10.5 -51.5t-28.5 -41t-42 -27.5t-51 -11q-27 0 -51 8.5t-42 25t-29 39.5t-11 50z" />
<glyph unicode="&#x3cc;" d="M91 544q14 114 59.5 216.5t118.5 179.5t172.5 121t221.5 41q117 -2 201 -48t136.5 -121.5t72.5 -173.5t9 -205l-3 -22q-14 -114 -59.5 -215.5t-118.5 -177.5t-172.5 -119.5t-220.5 -40.5q-116 2 -200 47.5t-136.5 120t-73 172t-9.5 204.5zM360 523q-5 -50 -4 -105.5 t17.5 -103t53 -80t101.5 -34.5q68 -2 117.5 28.5t83 79t52 108t26.5 116.5l2 21q3 33 4.5 69.5t-3 72t-15 68t-30 57.5t-49.5 40.5t-73 17.5q-69 2 -118.5 -28t-83 -79t-53 -109t-26.5 -118zM781 1676h280l-281 -399h-147z" />
<glyph unicode="&#x3cd;" d="M477 1082l-104 -627q-5 -45 -3 -90t18 -81t48 -59.5t87 -24.5q46 -1 83 16t66 46t51 67t37.5 79.5t25 83.5t15.5 79q18 128 15 258t-34 255l254 -1q40 -123 45 -254t-11 -258q-15 -118 -55 -226.5t-108 -190.5t-166 -130t-229 -46q-110 2 -192.5 37t-135 97t-74 150 t-9.5 197l104 623h272zM761 1667h280l-281 -399h-147z" />
<glyph unicode="&#x3ce;" d="M489 1081q-26 -63 -53.5 -126t-51.5 -127.5t-43 -130.5t-28 -134q-2 -10 -6 -40t-8.5 -69.5t-7 -83.5t-1.5 -81t8 -62.5t23 -27.5q25 -4 43.5 12.5t32 44t22.5 62.5t15 68.5t8.5 61t4.5 40.5l54 346h285l-54 -346q-1 -10 -4 -34.5t-5.5 -56.5t-3 -66.5t4 -63t15.5 -47.5 t32 -20q23 -1 40 22.5t29 60t20 81t13 85.5t7.5 74t4.5 47q16 128 16.5 257.5t-27.5 256.5l253 -1q38 -125 39.5 -254.5t-14.5 -257.5q-7 -56 -19 -122.5t-31.5 -133t-48.5 -128.5t-70.5 -108.5t-98.5 -74t-131 -24.5q-42 1 -76.5 15.5t-61.5 39t-45.5 58t-28.5 72.5 q-22 -37 -48 -71t-57 -60t-69 -41t-84 -14q-71 1 -119 31t-77.5 78.5t-43 109.5t-17 125.5t0.5 126t10 111.5q17 140 65 269.5t119 250.5h268zM781 1670h280l-281 -399h-147z" />
<glyph unicode="&#x3d1;" d="M1200 581q-31 -8 -61 -15t-61 -13l-16 -99q-16 -105 -61.5 -193.5t-115.5 -151.5t-162.5 -97.5t-201.5 -31.5q-100 2 -179 40t-132 102t-76.5 149.5t-12.5 183.5l41 256l260 1l-42 -258q-5 -47 2.5 -90t29 -76.5t57.5 -54.5t87 -22q52 -2 91 19.5t66 56.5t43 79t24 88 l18 100q-89 24 -158.5 71t-116.5 112.5t-69 146.5t-15 173l2 23q8 84 41 157.5t87 127.5t127 84t162 27q87 -2 148.5 -37.5t98 -92.5t50 -131t4.5 -153l-46 -269q26 5 52 10.5t52 11.5zM693 1069q-4 -44 1.5 -83.5t21.5 -73.5t44 -61t69 -46l50 284q2 20 3 44t-4.5 45.5 t-19 36t-41.5 15.5q-29 1 -50 -11.5t-36 -32t-23.5 -44.5t-11.5 -49z" />
<glyph unicode="&#x3d2;" d="M904 1199q26 54 59.5 106t76.5 91.5t96.5 63t119.5 22.5q35 -1 67 -7.5t64 -18.5l-47 -218q-23 6 -45 6q-38 0 -68.5 -19.5t-50.5 -51.5l-411 -699l-82 -474h-273l90 513l-161 661q-21 61 -86 66q-13 0 -25 -1.5t-24 -3.5l1 223q28 11 57.5 16t59.5 4q59 -2 103 -25.5 t75.5 -61.5t52.5 -87t35 -100l80 -408v-66l26 66z" />
<glyph unicode="&#x3d6;" d="M1288 881l-113 1q2 -114 0 -226t-16 -225q-7 -56 -19.5 -112t-32.5 -106.5t-49.5 -94t-69.5 -75t-92 -48.5t-118 -15q-44 1 -80.5 16t-65 40.5t-48.5 60.5t-30 76q-23 -39 -50.5 -74.5t-60.5 -62.5t-72.5 -42.5t-88.5 -14.5q-63 1 -109 20t-78 51t-51.5 74.5t-28.5 91.5 t-9.5 101t5.5 104q14 121 50.5 238t95.5 225l-111 -2l36 200h1244zM896 430q11 113 11.5 225.5t-1.5 225.5l-474 2q-53 -109 -91.5 -225.5t-52.5 -236.5q-1 -10 -4 -29.5t-5 -43t-2 -49t4 -47t13 -36t25 -16.5q28 -3 48.5 12.5t35 42.5t24.5 60.5t16 67t9.5 61.5l5.5 44 l30 207h285l-30 -207q-1 -11 -4 -36.5t-5 -57.5t-1.5 -66t6.5 -62.5t19 -46.5t37 -18q21 0 36 13t25.5 34t17.5 46.5t11.5 51t6.5 48t4 36.5z" />
<glyph unicode="&#x400;" d="M1004 638h-580l-72 -411h679l-40 -227h-953l253 1456h950l-40 -229h-675l-64 -367h581zM890 1538h-198l-213 279h282z" />
<glyph unicode="&#x401;" d="M1004 638h-580l-72 -411h679l-40 -227h-953l253 1456h950l-40 -229h-675l-64 -367h581zM441 1701q0 28 10.5 51.5t28.5 40.5t42 27t51 11q26 0 50 -8.5t42.5 -25t29.5 -39t11 -49.5q0 -28 -10.5 -51t-28.5 -40.5t-41.5 -27t-50.5 -10.5q-27 0 -51 8.5t-42.5 24.5 t-29.5 38.5t-11 49.5zM907 1701q0 28 10 51t28 40.5t42 27t51 10.5q26 0 50 -8.5t42.5 -24.5t30 -38.5t11.5 -49.5q0 -28 -10.5 -51.5t-28.5 -41t-42 -27.5t-51 -11q-27 0 -51 8.5t-42 25t-29 39.5t-11 50z" />
<glyph unicode="&#x402;" d="M1173 1228h-466l-74 -381q17 2 32 3.5t32 1.5q100 1 180.5 -29.5t135 -87.5t80.5 -138t18 -182q-9 -108 -52 -188t-112 -134t-159 -81.5t-192 -29.5l23 213q98 6 150.5 58.5t63.5 148.5q5 46 -1.5 85.5t-27 69t-54.5 46.5t-84 19q-15 1 -29.5 0.5t-29.5 -2.5l-114 -620 h-274l213 1228h-294l40 228h1035z" />
<glyph unicode="&#x403;" d="M1160 1228h-641l-213 -1228h-274l253 1456h915zM866 1814h314l-313 -279h-227z" />
<glyph unicode="&#x404;" d="M1088 457q-15 -110 -64.5 -199t-124.5 -151.5t-172 -95.5t-208 -31q-128 3 -216 55t-139.5 136.5t-69 192.5t-2.5 222l44 283q18 118 64 228.5t120 196t177 136t234 48.5q114 -2 199.5 -38t142.5 -100.5t87 -154t33 -198.5h-273q1 57 -8.5 104.5t-33.5 82.5t-65 55 t-103 22q-78 2 -130.5 -33.5t-87.5 -92t-55.5 -124t-32.5 -129.5l-5 -29l466 1l-40 -227l-450 1l-6 -34q-6 -37 -9.5 -79t-1.5 -83.5t12 -80.5t30.5 -69t54 -48.5t83.5 -20.5q61 -2 108 16t81.5 51.5t56.5 81t33 103.5z" />
<glyph unicode="&#x405;" d="M827 387q7 52 -10.5 89t-50 63.5t-74.5 44.5t-83 32q-78 25 -153.5 63.5t-133.5 92.5t-91.5 126.5t-27.5 165.5q6 104 57 182t128 130t171.5 77t189.5 23q99 -2 183 -34t144 -90t92.5 -140t29.5 -184l-266 1q1 49 -11.5 90t-38 70t-64 45t-90.5 17q-44 1 -87.5 -10.5 t-79.5 -35t-61 -59t-31 -83.5q-6 -51 17 -86.5t61.5 -60t83.5 -41t82 -28.5q79 -27 151 -67.5t125.5 -96.5t83 -129.5t23.5 -164.5q-5 -71 -29 -129t-63.5 -103.5t-91 -79.5t-110.5 -55.5t-123 -31.5t-128 -9q-105 2 -196 34.5t-158 93.5t-103.5 147.5t-33.5 196.5l268 -1 q-3 -118 57.5 -182t181.5 -66q44 0 87.5 10.5t79.5 33t61 57t32 82.5z" />
<glyph unicode="&#x406;" d="M335 1456h819l-40 -227h-275l-174 -1003h276l-40 -226h-819l40 226h268l174 1003h-269z" />
<glyph unicode="&#x407;" d="M335 1456h819l-40 -227h-275l-174 -1003h276l-40 -226h-819l40 226h268l174 1003h-269zM402 1710q0 28 10.5 51.5t28.5 40.5t42 27t51 11q26 0 50 -8.5t42.5 -25t29.5 -39t11 -49.5q0 -28 -10.5 -51t-28.5 -40.5t-41.5 -27t-50.5 -10.5q-27 0 -51 8.5t-42.5 24.5 t-29.5 38.5t-11 49.5zM868 1710q0 28 10 51t28 40.5t42 27t51 10.5q26 0 50 -8.5t42.5 -24.5t30 -38.5t11.5 -49.5q0 -28 -10.5 -51.5t-28.5 -41t-42 -27.5t-51 -11q-27 0 -51 8.5t-42 25t-29 39.5t-11 50z" />
<glyph unicode="&#x408;" d="M941 1456h275l-171 -1009q-15 -103 -64 -189.5t-122.5 -149t-166.5 -96.5t-198 -32q-104 1 -184 33t-133.5 90.5t-79.5 141t-23 184.5l275 -1q-2 -47 4 -87.5t25 -70t52.5 -47t86.5 -18.5q52 -1 95 18.5t75 53t53 77.5t29 92z" />
<glyph unicode="&#x409;" d="M905 1456l-95 -510h8q92 -3 153.5 -46.5t97 -110.5t47 -148t4.5 -159q-8 -91 -40 -178.5t-87 -155.5t-133 -109t-179 -39h-249l213 1228h-130l-111 -650q-10 -63 -23.5 -131.5t-35 -133t-53.5 -122.5t-77 -101t-105.5 -67.5t-139.5 -22.5h-31l27 225l17 -2q38 -1 65.5 18 t47 50t32 70t20.5 78.5t12.5 76t8.5 62.5l149 878h587zM784 722l-95 -499h16q48 1 82 27.5t56.5 65t34 84t16.5 85.5q4 29 4.5 68t-8.5 75t-30.5 62t-60.5 31z" />
<glyph unicode="&#x40a;" d="M380 840h166l107 616h236l-97 -520q62 5 109.5 -13.5t83.5 -54t60 -83.5t37.5 -100.5t17.5 -106.5t0 -101q-8 -92 -40.5 -178.5t-88.5 -153.5t-135 -107t-179 -38h-256l107 614h-167l-107 -614h-250l252 1456h251zM765 712l-92 -487h8q48 1 82.5 26t57.5 62t35 81.5 t17 84.5q4 31 4 69.5t-10 73t-31.5 59.5t-61.5 30z" />
<glyph unicode="&#x40b;" d="M1143 1228h-434l-68 -352q95 -3 173 -32t131.5 -83t78.5 -132t15 -177l-75 -452h-274l75 453q12 96 -21.5 143t-128.5 56l-120 -652h-274l213 1228h-288l40 228h997z" />
<glyph unicode="&#x40c;" d="M556 595l-188 -177l-72 -418h-276l253 1456h275l-114 -653l157 175l419 478h352l-599 -656l348 -800h-311zM843 1811h314l-313 -279h-227z" />
<glyph unicode="&#x40d;" d="M923 1456h281l-253 -1456h-275l159 912l-552 -912h-280l253 1456h274l-159 -913zM837 1525h-198l-213 279h282z" />
<glyph unicode="&#x40e;" d="M576 945l42 -256l428 767h309l-705 -1181q-36 -65 -80 -120t-98 -94.5t-119.5 -62t-144.5 -21.5q-55 1 -107.5 11t-105.5 23l42 220q34 -12 69.5 -20t71.5 -9q84 -2 142 35t100 106l42 64l-306 1049h284zM1183 1849q-5 -71 -34.5 -126.5t-77 -93t-109 -56.5t-130.5 -18 q-67 1 -123.5 21.5t-97.5 58t-64 91.5t-22 123l193 -1q-2 -59 25 -96t92 -38t103 36t49 97z" />
<glyph unicode="&#x40f;" d="M254 1456h273l-214 -1230h398l214 1230h275l-253 -1456h-325l-63 -360h-276l63 360h-345z" />
<glyph unicode="&#x410;" d="M774 304h-423l-136 -304h-297l715 1456h249l202 -1456h-281zM460 543h291l-51 533z" />
<glyph unicode="&#x411;" d="M1151 1228h-641l-53 -310l143 -1q100 -2 188 -31.5t151.5 -85.5t96.5 -138t24 -190q-10 -117 -62 -205.5t-133 -148t-183 -89.5t-212 -29h-448l253 1456h916zM418 692l-81 -466l145 -2q58 0 110 17t92.5 49t67 78.5t34.5 106.5q7 51 -4.5 90t-38 66.5t-65.5 42.5t-88 17z " />
<glyph unicode="&#x412;" d="M20 0l253 1456l460 -1q92 -2 178 -23.5t151 -68t101 -119.5t28 -178q-5 -60 -26 -109.5t-55.5 -88.5t-80 -69.5t-98.5 -52.5q50 -18 85.5 -50t57.5 -73t31 -89.5t6 -98.5q-8 -115 -57 -198t-125.5 -136t-174.5 -77.5t-203 -23.5h-531zM407 642l-72 -415l229 -2 q50 1 96.5 14t84 39.5t62.5 65.5t33 92q14 94 -29 147.5t-137 57.5zM442 845l191 -2q49 0 96 11t85.5 35t64.5 61.5t34 91.5q7 50 -5 84.5t-38 56t-64 32t-83 11.5l-214 1z" />
<glyph unicode="&#x413;" d="M1160 1228h-641l-213 -1228h-274l253 1456h915z" />
<glyph unicode="&#x414;" d="M921 -358h-237l62 358h-532l-63 -358h-230l52 584l48 -1q57 28 99.5 71t73 94.5t51 110.5t36 120t26.5 122t23 117l140 596h700l-213 -1230h105zM606 860q-17 -83 -35.5 -167.5t-44 -166t-62 -159t-89.5 -145.5l308 4l174 1002h-165z" />
<glyph unicode="&#x415;" d="M1004 638h-580l-72 -411h679l-40 -227h-953l253 1456h950l-40 -229h-675l-64 -367h581z" />
<glyph unicode="&#x416;" d="M765 588h-51l-106 -588h-240l108 589h-54l-242 -589h-297l380 788l-97 668h279l21 -616h44l110 616h241l-113 -617h41l231 617h294l-338 -696l99 -760h-277z" />
<glyph unicode="&#x417;" d="M1197 1069q-5 -61 -29 -111t-61.5 -90t-85 -71t-99.5 -55q99 -47 144 -132.5t37 -193.5q-5 -77 -32 -139.5t-70.5 -111t-100 -84.5t-121 -58.5t-134 -33t-138.5 -9.5q-97 2 -183.5 29.5t-151 80.5t-101 132t-33.5 183l273 -1q-1 -48 15 -84.5t45 -61.5t68.5 -38.5 t85.5 -14.5q51 -1 102.5 11.5t94 38.5t72 67t37.5 97q7 54 -3.5 93.5t-36.5 65t-66.5 38.5t-91.5 15l-205 1l38 220l178 -1q52 0 99 12.5t83.5 38.5t60.5 66t31 96q6 48 -9 83t-43.5 58t-68.5 34t-83 12q-45 1 -87.5 -10.5t-77.5 -35t-59.5 -58.5t-33.5 -81l-274 -1 q8 104 59.5 182t128.5 129.5t172 76.5t190 23q94 -2 181.5 -25.5t153.5 -73t102 -126t28 -182.5z" />
<glyph unicode="&#x418;" d="M923 1456h281l-253 -1456h-275l159 912l-552 -912h-280l253 1456h274l-159 -913z" />
<glyph unicode="&#x419;" d="M923 1456h281l-253 -1456h-275l159 912l-552 -912h-280l253 1456h274l-159 -913zM1108 1836q-5 -71 -34.5 -126.5t-77 -93t-109 -56.5t-130.5 -18q-67 1 -123.5 21.5t-97.5 58t-64 91.5t-22 123l193 -1q-2 -59 25 -96t92 -38t103 36t49 97z" />
<glyph unicode="&#x41a;" d="M539 598h-119l-104 -598h-274l252 1456h275l-118 -643l63 1l482 642h332l-553 -713l302 -743h-303z" />
<glyph unicode="&#x41b;" d="M1220 1456l-253 -1456h-275l213 1228h-290l-96 -534q-12 -74 -28.5 -154t-41.5 -157t-61.5 -147t-88.5 -122.5t-122 -83t-163 -30.5h-74l27 225l35 -1q53 2 90.5 27t63 64.5t41 89.5t25 101.5t15 100.5t10.5 87l134 762h839z" />
<glyph unicode="&#x41c;" d="M608 1456l38 -543l246 543h344l-253 -1456h-252l77 442l124 648l-285 -610h-137l-61 615l-106 -675l-73 -420h-252l253 1456h337z" />
<glyph unicode="&#x41d;" d="M956 0h-271l110 631h-398l-110 -631h-272l252 1456h273l-104 -597h398l104 597h271z" />
<glyph unicode="&#x41e;" d="M1119 622q-13 -81 -38 -161t-63.5 -152t-90 -133.5t-116.5 -105.5t-143 -68t-170 -22q-87 2 -154.5 29.5t-117 74t-81.5 108t-49 132t-20 146.5t7 151l33 212q12 80 36.5 159.5t61 151.5t86.5 134t113 106.5t140 69t168 22.5q88 -2 156.5 -29t120 -73.5t85.5 -108 t52.5 -132t22.5 -147.5t-6 -153zM874 836q5 37 8 81t0.5 88.5t-12.5 86.5t-31 75t-55 54t-85 23q-55 2 -97 -15.5t-73.5 -49t-54.5 -73t-38.5 -87.5t-25.5 -93.5t-16 -90.5l-33 -215q-5 -35 -8.5 -78t-3 -88t8.5 -88t27 -77t51.5 -55.5t83.5 -23.5q54 -2 97 15.5t76.5 48.5 t58.5 73t42.5 88.5t28.5 94.5t18 91z" />
<glyph unicode="&#x41f;" d="M959 0h-274l213 1228h-398l-213 -1228h-274l252 1456h947z" />
<glyph unicode="&#x420;" d="M407 534l-93 -534h-274l252 1456l469 -1q101 -3 185 -36t143.5 -93t89 -144t20.5 -188q-9 -112 -59.5 -197.5t-128.5 -144t-176.5 -89t-203.5 -30.5zM446 762l200 -3q53 1 100 17.5t84 46.5t61.5 73t31.5 97q6 47 -1 88.5t-28.5 73t-57.5 51t-86 21.5l-223 1z" />
<glyph unicode="&#x421;" d="M1075 457q-15 -110 -64 -199t-124 -152t-172 -96.5t-207 -30.5q-89 2 -158 29.5t-119.5 74t-83.5 109t-50.5 134t-20 149t7.5 154.5l29 196q12 81 37.5 162t63.5 154t89.5 135.5t116.5 107.5t143.5 70t170.5 23q112 -2 195 -39.5t137.5 -102.5t82.5 -154t31 -195l-272 1 q0 53 -7.5 100t-29 82t-59.5 56.5t-98 23.5q-57 2 -101 -16.5t-77.5 -50t-58 -74.5t-41.5 -90.5t-28 -96.5t-17 -94l-28 -199q-5 -37 -9 -82t-3.5 -91t8.5 -90t28 -78.5t54 -56t87 -23.5q60 -3 107 15t81 51t56 79.5t33 102.5z" />
<glyph unicode="&#x422;" d="M1274 1227h-435l-213 -1227h-275l213 1227h-430l40 229h1141z" />
<glyph unicode="&#x423;" d="M576 945l42 -256l428 767h309l-705 -1181q-36 -65 -80 -120t-98 -94.5t-119.5 -62t-144.5 -21.5q-55 1 -107.5 11t-105.5 23l42 220q34 -12 69.5 -20t71.5 -9q84 -2 142 35t100 106l42 64l-306 1049h284z" />
<glyph unicode="&#x424;" d="M889 1258q99 -17 170.5 -66.5t116 -121.5t61.5 -160.5t8 -182.5q-11 -110 -53.5 -203.5t-111.5 -164t-161.5 -114.5t-202.5 -56l-39 -189h-273l39 191q-98 15 -170 63t-117 118t-63 157.5t-9 181.5q11 111 53.5 206.5t111.5 167.5t162 117.5t205 57.5l40 196h274z M353 709q-5 -42 -4 -84.5t14 -80t39 -66.5t71 -45l114 585q-54 -16 -95 -46t-69.5 -70.5t-45.5 -89.5t-24 -103zM975 728q5 42 4.5 86t-12.5 83.5t-37.5 70.5t-70.5 48l-114 -584q52 15 92 43.5t68.5 67.5t45.5 86t24 99z" />
<glyph unicode="&#x425;" d="M652 936l332 520h334l-519 -734l288 -722h-307l-176 528l-340 -528h-336l531 746l-280 710h308z" />
<glyph unicode="&#x426;" d="M254 1456h273l-214 -1230h384l213 1230h276l-214 -1231h183l-118 -576h-255l61 351h-842z" />
<glyph unicode="&#x427;" d="M1235 1456l-253 -1456h-275l104 556q-48 -14 -97.5 -22t-100.5 -7q-108 0 -186.5 36t-127 99.5t-67.5 150.5t-7 190l75 453h274l-74 -454q-5 -45 -5.5 -88.5t12 -77.5t42 -56t83.5 -24q52 -2 103 5.5t102 18.5l123 676h275z" />
<glyph unicode="&#x428;" d="M494 1456l-214 -1230h134l214 1230h259l-214 -1230h132l214 1230h267l-253 -1456h-1059l253 1456h267z" />
<glyph unicode="&#x429;" d="M494 1456l-214 -1230h134l214 1230h259l-214 -1230h132l214 1230h267l-215 -1233h126l-119 -573h-251l61 350h-914l253 1456h267z" />
<glyph unicode="&#x42a;" d="M198 1456h517l-101 -584l70 -1q96 -3 175.5 -32.5t135 -84t83 -133t19.5 -177.5q-9 -108 -54.5 -191.5t-117.5 -140t-165.5 -85t-196.5 -27.5h-375l215 1239h-244zM575 647l-74 -423l73 -2q106 2 171 61.5t79 163.5q5 42 -1 77.5t-24 62t-49 42t-76 17.5z" />
<glyph unicode="&#x42b;" d="M384 862h54q88 -3 149 -38.5t97.5 -93.5t50 -132.5t7.5 -153.5q-8 -96 -43.5 -178t-94.5 -141.5t-140 -93t-180 -31.5h-317l253 1456h267zM1014 0h-274l253 1456h274zM359 648l-83 -435h38q42 2 70 26t45.5 58.5t26.5 74.5t13 74q3 22 5 55t-2.5 64t-19.5 54.5t-48 26.5z " />
<glyph unicode="&#x42c;" d="M457 918l143 -1q100 -2 188 -31.5t151.5 -85.5t96.5 -138t24 -190q-10 -117 -62 -205.5t-133 -148t-183 -89.5t-212 -29h-448l253 1456h275zM418 692l-81 -466l145 -2q58 0 110 17t92.5 49t67 78.5t34.5 106.5q7 51 -4.5 90t-38 66.5t-65.5 42.5t-88 17z" />
<glyph unicode="&#x42d;" d="M284 484q-6 -49 -2 -98t23.5 -88.5t56 -65t94.5 -28.5q81 -4 138 28.5t95 85.5t61 120.5t35 134.5l8 40h-381l40 227h364l7 41q5 35 8 76t0 81.5t-13 78t-30.5 67t-53.5 47.5t-80 20q-66 2 -116 -19.5t-85.5 -60t-55 -91.5t-23.5 -114l-271 -1q9 111 57.5 206t125.5 164 t176.5 107t211.5 36q83 -2 149.5 -26.5t117 -66t85 -98t54 -122.5t24.5 -139t-4 -147l-48 -303q-18 -123 -66.5 -232.5t-126 -191.5t-183.5 -128.5t-239 -43.5q-111 3 -194.5 42t-138 106.5t-79 158.5t-15.5 197h274z" />
<glyph unicode="&#x42e;" d="M1086 508q-9 -60 -23.5 -123.5t-37.5 -123t-55.5 -112t-77 -91t-102.5 -60t-132 -19.5q-69 2 -116.5 27.5t-79 66.5t-48.5 94.5t-23 111.5t-4 117t9 111l14 97h-84l-106 -604h-243l252 1456h244l-111 -635h85l20 128q8 57 21.5 119t35 121.5t52 112.5t73.5 92.5t98.5 62 t127.5 20.5q70 -2 120 -26.5t84 -64.5t52.5 -92.5t26.5 -110.5t7 -118.5t-8 -115.5zM909 984q2 17 6 43t6.5 55.5t2 59.5t-8 54.5t-23.5 40.5t-44 18q-30 1 -51 -13t-35.5 -38t-23 -54t-13.5 -60.5t-8 -58.5t-5 -47l-76 -511q-1 -14 -5 -39t-7 -54.5t-3 -61t5.5 -57 t19.5 -42.5t39 -19q32 -2 55 11.5t38.5 36.5t25 53t15.5 61t8.5 60t5.5 51z" />
<glyph unicode="&#x42f;" d="M633 0l100 573h-210l-366 -573h-306l430 662q-94 63 -135.5 154.5t-32.5 203.5q9 117 60.5 199.5t131 135.5t179.5 77.5t206 24.5l471 -1l-252 -1456h-276zM383 1004q-14 -106 37.5 -159t154.5 -56l195 -1l77 440l-169 2q-56 0 -106 -13.5t-89.5 -41t-66 -70 t-33.5 -101.5z" />
<glyph unicode="&#x430;" d="M700 0q-8 26 -9.5 50.5t-0.5 50.5q-63 -59 -137.5 -90.5t-162.5 -30.5q-68 1 -129.5 23.5t-107 63t-70.5 98.5t-22 130t27.5 127t64.5 96t92 68.5t111 44.5t121.5 24t123.5 7l156 -2l13 67q6 39 -2.5 70t-29 52.5t-51.5 33t-70 12.5q-70 2 -117 -31.5t-61 -102.5l-271 -2 q6 90 51 155.5t113 108t150.5 62t163.5 18.5q85 -2 161 -27t131.5 -72.5t84 -117.5t19.5 -163l-75 -465q-9 -59 -13.5 -120.5t16.5 -119.5l-1 -18h-269zM461 194q71 -2 133.5 29t107.5 85l34 187l-123 1q-45 0 -91 -9t-85 -29.5t-66 -54.5t-34 -86q-4 -31 4 -54t25 -38 t41.5 -23t53.5 -8z" />
<glyph unicode="&#x431;" d="M705 1022q105 -2 180.5 -45t122 -112.5t65 -159t9.5 -185.5l-2 -21q-12 -112 -57 -208t-117 -166t-169 -109t-213 -37q-117 2 -202 49t-137.5 123.5t-73 175.5t-9.5 207l3 21l-1 2l5 38q12 90 33.5 181t54 176t78.5 161.5t108 138.5t140.5 106t177.5 64q34 7 70.5 14 t69 21t56.5 37.5t32 62.5h221q-6 -92 -40.5 -152.5t-89.5 -100t-127 -62t-153 -38.5q-71 -14 -126.5 -41.5t-100 -68t-79.5 -93.5t-63 -117q71 65 153.5 102.5t180.5 35.5zM633 798q-62 1 -108 -22t-78.5 -62.5t-51.5 -91t-25 -106.5l-2 -21q-5 -50 -1 -101.5t22.5 -93.5 t55.5 -69.5t99 -29.5q64 -2 111 23.5t79 68t50.5 96.5t24.5 110l2 21q4 49 -1 98t-24.5 88.5t-56.5 64.5t-96 27z" />
<glyph unicode="&#x432;" d="M29 0l188 1082l421 -1q46 -1 95.5 -7t95.5 -19.5t86.5 -35t70 -54t45.5 -76.5t13 -101q-3 -49 -23 -86.5t-51.5 -66.5t-71 -50t-80.5 -37q42 -11 78 -31t62 -49.5t40 -67t13 -83.5q-3 -94 -46 -155.5t-109.5 -97.5t-147.5 -50.5t-160 -13.5h-519zM379 451l-40 -230 l219 -1q31 1 62.5 7t58 19.5t45 37t24.5 58.5q5 31 -3.5 51.5t-26 32.5t-42 17.5t-50.5 6.5zM411 640l168 -1q29 1 59.5 6t57 17t46 33.5t25.5 54.5q6 34 -5 55t-31.5 32.5t-47.5 15.5t-54 5l-179 1z" />
<glyph unicode="&#x433;" d="M1087 856h-634l-149 -856h-270l188 1082h905z" />
<glyph unicode="&#x434;" d="M66 221q50 6 86.5 35t61.5 71.5t41 95t26.5 105.5t17.5 102t14 86l69 366h764l-149 -859h150l-115 -547h-252l57 324h-632l-57 -324h-256l75 548zM585 716q-12 -64 -26.5 -129t-34.5 -128t-46.5 -123.5t-62.5 -115.5l311 3l108 626h-225z" />
<glyph unicode="&#x435;" d="M556 -20q-111 2 -200.5 42.5t-151 110t-90.5 163.5t-19 204l4 41q13 114 61 217t124.5 180t178.5 122t222 42q113 -3 195 -47t132.5 -117.5t69 -168.5t5.5 -200l-18 -118h-707q-2 -52 13 -96.5t43.5 -77.5t70.5 -52.5t96 -20.5q85 -3 160.5 29.5t133.5 92.5l123 -151 q-36 -52 -87.5 -89t-111 -61t-123.5 -35t-124 -10zM665 878q-54 2 -97 -18t-76.5 -54t-58.5 -77t-44 -87h441l5 25q7 44 -2 82t-31.5 66t-57 44.5t-79.5 18.5z" />
<glyph unicode="&#x436;" d="M731 410h-52l-76 -410h-236l78 411h-49l-194 -411h-279l326 589l-120 493h264l47 -410h40l76 410h235l-76 -411h38l194 411h284l-304 -515l117 -567h-259z" />
<glyph unicode="&#x437;" d="M1098 794q-3 -48 -23.5 -85.5t-52 -66.5t-70.5 -51.5t-79 -39.5q77 -32 120.5 -92t39.5 -145q-3 -65 -29 -115.5t-67.5 -88t-95 -63t-112 -41t-118 -21.5t-112.5 -5q-80 1 -158.5 20.5t-141.5 60.5t-101.5 105t-38.5 155h266q0 -39 19 -64t48.5 -40t64.5 -21t67 -6 q34 0 74 6.5t75.5 23t61.5 43.5t33 68t-8 66t-42 38.5t-61 18t-65 5.5l-214 1l33 185l185 -1q33 1 70 6t70 19t57 39t30 64q6 35 -9.5 58t-41 36.5t-56.5 19t-58 6.5q-33 0 -69 -5t-67.5 -18.5t-55 -37t-32.5 -59.5l-273 -1q4 61 28 109.5t62 85.5t86.5 63t102 42.5 t109.5 23.5t109 6q47 -1 99 -7.5t102 -20.5t95 -37t78 -57t51 -79.5t15 -105.5z" />
<glyph unicode="&#x438;" d="M858 1082h278l-188 -1082h-271l118 674l-504 -674h-278l188 1082h271l-118 -674z" />
<glyph unicode="&#x439;" d="M858 1082h278l-188 -1082h-271l118 674l-504 -674h-278l188 1082h271l-118 -674zM1058 1527q-5 -71 -34.5 -126.5t-77 -93t-109 -56.5t-130.5 -18q-67 1 -123.5 21.5t-97.5 58t-64 91.5t-22 123l193 -1q-2 -59 25 -96t92 -38t103 36t49 97z" />
<glyph unicode="&#x43a;" d="M531 405h-165l-70 -405h-272l188 1082h272l-73 -414h130l355 414l357 -1l-486 -532l313 -549h-342z" />
<glyph unicode="&#x43b;" d="M1135 1082l-188 -1082h-272l149 856h-284l-39 -235q-11 -76 -28 -152t-43 -146t-63 -129.5t-89.5 -103.5t-123 -68t-161.5 -22h-54l23 228l29 -1q51 -1 87.5 17.5t61 49.5t40 71.5t24.5 84.5t14.5 88.5t11.5 82.5l77 461h828z" />
<glyph unicode="&#x43c;" d="M542 335l277 747h342l-188 -1082h-241l102 582l-253 -582h-182l-50 596l-104 -596h-240l188 1082h334z" />
<glyph unicode="&#x43d;" d="M947 0h-272l73 420h-390l-73 -420h-272l188 1082h272l-76 -438h390l76 438h272z" />
<glyph unicode="&#x43e;" d="M91 544q14 114 59.5 216.5t118.5 179.5t172.5 121t221.5 41q117 -2 201 -48t136.5 -121.5t72.5 -173.5t9 -205l-3 -22q-14 -114 -59.5 -215.5t-118.5 -177.5t-172.5 -119.5t-220.5 -40.5q-116 2 -200 47.5t-136.5 120t-73 172t-9.5 204.5zM360 523q-5 -50 -4 -105.5 t17.5 -103t53 -80t101.5 -34.5q68 -2 117.5 28.5t83 79t52 108t26.5 116.5l2 21q3 33 4.5 69.5t-3 72t-15 68t-30 57.5t-49.5 40.5t-73 17.5q-69 2 -118.5 -28t-83 -79t-53 -109t-26.5 -118z" />
<glyph unicode="&#x43f;" d="M948 0h-272l149 856h-391l-149 -856h-272l188 1082h935z" />
<glyph unicode="&#x440;" d="M1069 537q-8 -66 -26 -133.5t-46.5 -130.5t-68 -117t-91 -94t-115 -62.5t-140.5 -20.5q-75 2 -138.5 30.5t-111.5 86.5l-97 -512h-271l260 1498l248 1l-17 -108q57 62 127 95.5t155 31.5q74 -2 129 -25.5t94.5 -64t64 -93.5t37 -112.5t14 -123t-4.5 -124.5zM799 559 q5 46 5 100.5t-14.5 102t-47.5 80t-95 34.5q-66 2 -116.5 -27t-89.5 -81l-80 -454q22 -57 64.5 -83.5t102.5 -28.5q68 -2 116 29t80 80.5t49 110t24 116.5z" />
<glyph unicode="&#x441;" d="M531 201q40 -1 76.5 10t66 32.5t50 53.5t26.5 72l254 2q-5 -92 -49 -165.5t-112.5 -124.5t-153 -77.5t-171.5 -24.5q-117 2 -200.5 47t-135 119.5t-71.5 172t-9 204.5l3 31q14 113 59 214t118 176.5t171.5 118.5t218.5 40q93 -2 168 -33t127.5 -86.5t79 -132t21.5 -169.5 l-255 1q3 40 -6 75.5t-30 61.5t-53 41.5t-75 17.5q-69 2 -117.5 -27t-80.5 -76.5t-50 -106t-25 -115.5l-4 -30q-5 -48 -5 -104t15 -103.5t49.5 -80t99.5 -34.5z" />
<glyph unicode="&#x442;" d="M1212 859h-404l-150 -859h-272l149 859h-401l40 223h1077z" />
<glyph unicode="&#x443;" d="M557 442l9 -99l406 739h311l-747 -1245q-33 -57 -72.5 -108t-87.5 -88.5t-106.5 -59t-129.5 -21.5q-36 1 -70.5 7.5t-69.5 15.5l55 211q20 -1 42 -4t42 -1q29 2 52 15t42.5 32t37 41.5t34.5 42.5l96 139l-262 1023h286z" />
<glyph unicode="&#x444;" d="M44 545q13 105 52.5 195.5t102 161t147.5 118.5t190 68l84 448h274l-84 -450q91 -25 156 -77.5t104.5 -124t53.5 -156t5 -174.5l-2 -22q-13 -105 -53 -195t-103 -160t-148.5 -117.5t-190.5 -66.5l-77 -409h-274l78 413q-91 25 -155 77t-103 122.5t-53.5 154.5t-5.5 173z M872 553q6 40 6 82t-9 81t-30 73t-58 58l-121 -619q91 48 141.5 126.5t67.5 178.5zM300 523q-5 -40 -5.5 -81.5t8 -79.5t28.5 -71.5t56 -57.5l120 616q-90 -48 -139 -126.5t-65 -178.5z" />
<glyph unicode="&#x445;" d="M632 745l283 337h306l-444 -542l273 -540h-277l-186 353l-294 -353h-308l460 562l-263 520h277z" />
<glyph unicode="&#x446;" d="M201 1082h272l-149 -859h362l149 859h272l-149 -860h154l-114 -543h-251l56 321h-790z" />
<glyph unicode="&#x447;" d="M984 0h-272l68 350q-50 -11 -100 -16.5t-101 -4.5q-98 0 -181.5 25t-143 76t-88.5 128.5t-18 183.5l55 340h271l-55 -341q-6 -51 2.5 -86t31 -57t58 -32.5t84.5 -11.5q54 -2 106 4t105 15l94 509h272z" />
<glyph unicode="&#x448;" d="M427 1082l-149 -859h127l150 859h255l-149 -859h127l150 859h263l-188 -1082h-1037l188 1082h263z" />
<glyph unicode="&#x449;" d="M423 1082l-149 -859h127l150 859h255l-149 -859h127l150 859h263l-150 -860h110l-113 -543h-221l56 321h-907l188 1082h263z" />
<glyph unicode="&#x44a;" d="M598 689l119 -1q74 -2 144.5 -21.5t125 -58.5t85.5 -99.5t27 -144.5q-5 -94 -47.5 -163t-108.5 -114t-148.5 -66.5t-166.5 -20.5h-423l150 865h-256l39 217h529zM561 472l-45 -256l121 -1q33 1 64 10t57 26.5t43.5 43.5t23.5 61q4 29 -3.5 50t-24 35t-39.5 21t-49 9z" />
<glyph unicode="&#x44b;" d="M364 695l34 -1q75 -2 136.5 -24.5t105 -64.5t65.5 -103t17 -138q-6 -87 -40 -155.5t-90 -115t-130 -70.5t-158 -23h-313l189 1082h251zM1011 0h-275l188 1082h274zM344 505l-60 -291h33q70 3 111 37t51 104q4 30 2.5 56t-11.5 46t-30.5 32t-54.5 15z" />
<glyph unicode="&#x44c;" d="M425 718l249 -1q80 -2 154.5 -24t130.5 -65t87.5 -108.5t26.5 -155.5q-6 -97 -51.5 -166t-115.5 -113.5t-155.5 -65t-171.5 -19.5h-550l188 1082h271zM387 495l-48 -273l251 -1q35 1 70 8.5t64.5 24t50.5 43.5t27 66q6 35 -3 59.5t-28.5 40t-47.5 23t-59 8.5z" />
<glyph unicode="&#x44d;" d="M621 878q-41 1 -79.5 -9.5t-70 -31.5t-53.5 -52t-31 -73l-254 -2q5 63 28 117t59.5 98t84.5 77.5t102.5 56t113 33.5t117.5 10q119 -2 205 -46t139.5 -118t74.5 -172t9 -208l-3 -31q-14 -117 -60.5 -218t-121 -175t-175.5 -115.5t-224 -38.5q-94 2 -171.5 32t-132.5 84 t-83.5 130.5t-25.5 172.5l253 -1q-2 -85 44 -139t135 -57q61 -2 106.5 18.5t79.5 56t57 83t40 99.5l-321 -1l31 174h306q4 49 -3 93t-27.5 77.5t-57 53.5t-91.5 22z" />
<glyph unicode="&#x44e;" d="M333 627l78 1q12 57 30.5 115t44 111t60 99.5t78.5 80t99.5 52t123.5 16.5q67 -2 118 -24.5t86.5 -60t58 -86.5t33.5 -104.5t12 -114t-5 -113.5l-16 -118q-12 -90 -42.5 -180.5t-83 -163t-129.5 -117t-182 -41.5q-93 2 -157 42t-101 103.5t-48.5 143t1.5 161.5l-88 -1 l-74 -428h-282l188 1082h275zM654 480q-1 -16 -4 -43t-4.5 -58.5t0.5 -64t10 -59t24 -44t43 -18.5q31 -2 53.5 13t38.5 40.5t26.5 57.5t17.5 64.5t10.5 62t6.5 50.5l14 119q1 16 4 43t4.5 58.5t-0.5 64t-10 59t-24 44t-43 18.5q-31 1 -54 -13.5t-39 -40t-26.5 -57.5 t-17.5 -64.5t-10.5 -62t-5.5 -50.5z" />
<glyph unicode="&#x44f;" d="M1157 1082l-188 -1082h-272l67 379h-236l-274 -379h-291l317 431q-76 46 -114 120.5t-33 163.5q6 96 51 165.5t114 114.5t154 66.5t171 21.5zM401 707q-5 -32 3.5 -55.5t26.5 -40t43 -25.5t54 -10l269 -1l50 284l-235 1q-35 -1 -70 -11t-64.5 -28.5t-50 -47t-26.5 -66.5z " />
<glyph unicode="&#x450;" d="M556 -20q-111 2 -200.5 42.5t-151 110t-90.5 163.5t-19 204l4 41q13 114 61 217t124.5 180t178.5 122t222 42q113 -3 195 -47t132.5 -117.5t69 -168.5t5.5 -200l-18 -118h-707q-2 -52 13 -96.5t43.5 -77.5t70.5 -52.5t96 -20.5q85 -3 160.5 29.5t133.5 92.5l123 -151 q-36 -52 -87.5 -89t-111 -61t-123.5 -35t-124 -10zM665 878q-54 2 -97 -18t-76.5 -54t-58.5 -77t-44 -87h441l5 25q7 44 -2 82t-31.5 66t-57 44.5t-79.5 18.5zM796 1226h-198l-213 279h282z" />
<glyph unicode="&#x451;" d="M556 -20q-111 2 -200.5 42.5t-151 110t-90.5 163.5t-19 204l4 41q13 114 61 217t124.5 180t178.5 122t222 42q113 -3 195 -47t132.5 -117.5t69 -168.5t5.5 -200l-18 -118h-707q-2 -52 13 -96.5t43.5 -77.5t70.5 -52.5t96 -20.5q85 -3 160.5 29.5t133.5 92.5l123 -151 q-36 -52 -87.5 -89t-111 -61t-123.5 -35t-124 -10zM665 878q-54 2 -97 -18t-76.5 -54t-58.5 -77t-44 -87h441l5 25q7 44 -2 82t-31.5 66t-57 44.5t-79.5 18.5zM348 1389q0 28 10.5 51.5t28.5 40.5t42 27t51 11q26 0 50 -8.5t42.5 -25t29.5 -39t11 -49.5q0 -28 -10.5 -51 t-28.5 -40.5t-41.5 -27t-50.5 -10.5q-27 0 -51 8.5t-42.5 24.5t-29.5 38.5t-11 49.5zM814 1389q0 28 10 51t28 40.5t42 27t51 10.5q26 0 50 -8.5t42.5 -24.5t30 -38.5t11.5 -49.5q0 -28 -10.5 -51.5t-28.5 -41t-42 -27.5t-51 -11q-27 0 -51 8.5t-42 25t-29 39.5t-11 50z" />
<glyph unicode="&#x452;" d="M725 1190h-231l-49 -259q59 76 137.5 124t178.5 47q96 -1 160.5 -39t101 -100.5t48 -142.5t2.5 -165l-31 -186h5l-85 -510q-12 -88 -44 -161.5t-84 -126.5t-124.5 -82.5t-165.5 -28.5q-38 1 -73.5 6t-71.5 14l38 218q24 -7 48.5 -11.5t49.5 -3.5q37 0 64 15t45 40 t29 56.5t16 63.5l7 42h-4l111 658q5 45 0.5 83.5t-22.5 68t-50 46.5t-81 19q-66 2 -119.5 -23t-99.5 -70l-138 -782h-271l207 1190h-177l32 180h176l29 166h271l-32 -166h229z" />
<glyph unicode="&#x453;" d="M1087 856h-634l-149 -856h-270l188 1082h905zM809 1492h314l-313 -279h-227z" />
<glyph unicode="&#x454;" d="M521 201q40 -1 76.5 10t66 32.5t50 53.5t26.5 72l254 2q-5 -92 -49 -165.5t-112.5 -124.5t-153 -77.5t-171.5 -24.5q-117 2 -200.5 47t-135 119.5t-71.5 172t-9 204.5l3 31q14 113 59 214t118 176.5t171.5 118.5t218.5 40q93 -2 168 -33t127.5 -86.5t79 -132t21.5 -169.5 l-255 1q3 40 -6 75.5t-30 61.5t-53 41.5t-75 17.5q-59 2 -103.5 -20t-76 -58.5t-51.5 -84t-31 -97.5h312l-31 -176h-301q-1 -43 5 -85.5t24 -76.5t50.5 -56t84.5 -23z" />
<glyph unicode="&#x455;" d="M767 303q5 25 -5 43.5t-28 32t-42.5 23t-49.5 16t-48.5 10.5t-39.5 8q-62 15 -129.5 38.5t-123 61t-90.5 92.5t-32 132q2 60 25 109.5t59.5 87.5t84 66t101 45.5t108.5 26t107 7.5q82 -1 160 -21.5t139.5 -63.5t99 -108.5t37.5 -156.5l-270 1q1 39 -12.5 67t-37.5 45.5 t-56.5 26t-69.5 8.5q-31 0 -66 -6t-66 -20.5t-53.5 -39t-28.5 -60.5q-7 -38 12 -61t49 -36.5t65 -20.5t61 -12q67 -13 140 -34.5t132.5 -58.5t97 -94t33.5 -141q-3 -63 -27 -112.5t-62.5 -87.5t-89 -64.5t-106 -43t-113 -23.5t-109.5 -6q-83 1 -163 24t-143.5 68.5t-103 113 t-39.5 159.5l257 -1q2 -44 19 -75t45.5 -50.5t65 -28.5t77.5 -9q31 0 68.5 5t71 18.5t58 37.5t31.5 62z" />
<glyph unicode="&#x456;" d="M292 1082h573l-149 -856h285l-40 -226h-857l39 226h299l109 629h-299zM619 1354q0 34 12 62t33.5 48.5t50 32t61.5 11.5q32 1 60 -9t49 -29t33.5 -46t12.5 -60q0 -34 -12 -62t-33 -48.5t-50 -32t-62 -11.5q-32 -1 -60 9t-49 29t-33.5 46t-12.5 60z" />
<glyph unicode="&#x457;" d="M276 1082h589l-149 -856h301l-40 -226h-889l40 226h314l109 629h-315zM407 1362q0 28 10.5 51.5t28.5 40.5t42 27t51 11q26 0 50 -8.5t42.5 -25t29.5 -39t11 -49.5q0 -28 -10.5 -51t-28.5 -40.5t-41.5 -27t-50.5 -10.5q-27 0 -51 8.5t-42.5 24.5t-29.5 38.5t-11 49.5z M873 1362q0 28 10 51t28 40.5t42 27t51 10.5q26 0 50 -8.5t42.5 -24.5t30 -38.5t11.5 -49.5q0 -28 -10.5 -51.5t-28.5 -41t-42 -27.5t-51 -11q-27 0 -51 8.5t-42 25t-29 39.5t-11 50z" />
<glyph unicode="&#x458;" d="M381 1082h539l-189 -1107q-14 -105 -55.5 -183t-106.5 -129.5t-151.5 -76.5t-190.5 -25q-45 1 -89.5 5t-89.5 12l36 228q35 -8 72.5 -11.5t73.5 -4.5q93 -2 152 45.5t75 139.5l149 880h-265zM676 1354q0 33 11.5 61.5t32.5 48.5t49.5 32t61.5 12q32 1 60 -9t49.5 -29 t34 -46t12.5 -60q0 -34 -12 -62t-33.5 -48.5t-50 -32t-61.5 -11.5q-32 -1 -60 9.5t-48.5 29.5t-33 45.5t-12.5 59.5z" />
<glyph unicode="&#x459;" d="M886 1082l-68 -354q77 -4 142 -29.5t111.5 -70.5t70.5 -109t19 -145q-6 -92 -45.5 -162.5t-101.5 -118t-142 -71t-167 -22.5h-271l148 856h-105l-40 -235q-11 -69 -25.5 -142.5t-38 -143t-57.5 -131t-82.5 -107.5t-113.5 -72.5t-151 -24.5h-44l27 240l19 -1 q42 -1 72.5 19t52.5 53t36.5 74.5t24 84.5t15 82.5t9.5 68.5l77 461h628zM891 378q9 60 -16 90.5t-82 40.5l-64 -290q66 10 109 50.5t53 108.5z" />
<glyph unicode="&#x45a;" d="M371 665h117l73 417h273l-68 -353h5q78 -2 142.5 -28t109 -72t67 -111t17.5 -144q-6 -90 -42.5 -160t-95.5 -118t-135.5 -72.5t-162.5 -23.5h-297l77 442h-118l-77 -442h-272l187 1082h273zM740 508l-60 -289h5q33 1 59.5 14t45.5 34.5t31 49.5t16 59q3 25 1 48t-12 41 t-27.5 29t-45.5 14h-13z" />
<glyph unicode="&#x45b;" d="M769 1201h-263l-51 -270q59 76 137.5 124t178.5 47q96 -1 160.5 -39t101 -100.5t48 -142.5t2.5 -165l-109 -655h-272l111 658q5 45 0.5 83.5t-22.5 68t-50 46.5t-81 19q-66 2 -119.5 -23t-99.5 -70l-138 -782h-271l209 1201h-145l32 180h144l27 155h271l-30 -155h261z " />
<glyph unicode="&#x45c;" d="M531 405h-165l-70 -405h-272l188 1082h272l-73 -414h130l355 414l357 -1l-486 -532l313 -549h-342zM768 1492h314l-313 -279h-227z" />
<glyph unicode="&#x45d;" d="M858 1082h278l-188 -1082h-271l118 674l-504 -674h-278l188 1082h271l-118 -674zM786 1216h-198l-213 279h282z" />
<glyph unicode="&#x45e;" d="M557 442l9 -99l406 739h311l-747 -1245q-33 -57 -72.5 -108t-87.5 -88.5t-106.5 -59t-129.5 -21.5q-36 1 -70.5 7.5t-69.5 15.5l55 211q20 -1 42 -4t42 -1q29 2 52 15t42.5 32t37 41.5t34.5 42.5l96 139l-262 1023h286zM1107 1515q-5 -71 -34.5 -126.5t-77 -93 t-109 -56.5t-130.5 -18q-67 1 -123.5 21.5t-97.5 58t-64 91.5t-22 123l193 -1q-2 -59 25 -96t92 -38t103 36t49 97z" />
<glyph unicode="&#x45f;" d="M473 1082l-149 -859h391l149 859h272l-188 -1082h-331l-62 -358h-272l63 358h-333l188 1082h272z" />
<glyph unicode="&#x460;" d="M1305 1456l-185 -1085q-10 -77 -38 -149t-74.5 -126.5t-112 -86.5t-151.5 -30q-67 2 -120 33t-82 92q-43 -55 -96.5 -90.5t-125.5 -34.5q-83 1 -140.5 34.5t-93 88t-48.5 124t-5 143.5l184 1087h253l-183 -1088q-2 -19 -3.5 -46.5t3 -53t17.5 -44.5t42 -20q30 -1 49 16.5 t30.5 43t17 54.5t8.5 50l183 1088h253l-181 -1088q-2 -20 -3.5 -48t4 -53.5t20 -43.5t44.5 -19q28 -1 46 17t28.5 44t15 54.5t7.5 48.5l183 1088h254z" />
<glyph unicode="&#x461;" d="M1215 1082l-116 -688q-11 -77 -36 -152t-69.5 -134.5t-109 -95.5t-153.5 -33q-69 2 -121.5 36t-78.5 99q-21 -29 -45 -54t-51.5 -43t-60 -28.5t-70.5 -9.5q-85 1 -140.5 39.5t-86.5 97.5t-40.5 132t-1.5 145l115 689h247l-113 -690q-1 -11 -3 -29t-3 -39t0 -42.5t7 -39 t17 -29t30 -12.5q34 -2 54.5 19t32.5 51.5t17.5 64t8.5 56.5l113 690h253l-113 -690q-2 -20 -4.5 -52t1 -62.5t18 -53t46.5 -23.5q30 -1 47.5 21.5t27.5 53.5t14 63.5t6 52.5l114 690h247z" />
<glyph unicode="&#x462;" d="M713 1090h-227l-29 -172l143 -1q100 -2 188 -31.5t151.5 -85.5t96.5 -138t24 -190q-10 -117 -62 -205.5t-133 -148t-183 -89.5t-212 -29h-448l189 1090h-171l32 180h170l33 186h275l-33 -186h228zM418 692l-81 -466l145 -2q58 0 110 17t92.5 49t67 78.5t34.5 106.5 q7 51 -4.5 90t-38 66.5t-65.5 42.5t-88 17z" />
<glyph unicode="&#x463;" d="M802 1076h-257l-64 -371l191 -1q78 -2 152 -22.5t130.5 -62.5t88.5 -106t27 -152q-6 -97 -51 -165.5t-114.5 -112.5t-155 -64t-170.5 -19h-493l187 1076h-157l31 180h157l53 306h273l-54 -306h258zM443 482l-46 -260l193 -1q34 1 69 8t64.5 23t50.5 42.5t27 65.5 q5 34 -5.5 56.5t-30.5 36.5t-47.5 20.5t-55.5 7.5z" />
<glyph unicode="&#x464;" d="M354 861l90 -1q15 63 33 134t43.5 140t60.5 132t83 110.5t111.5 75t145.5 25.5q70 -2 121 -24t87 -58.5t57.5 -85.5t32 -104t10.5 -114.5t-7 -116.5h-244q2 29 5.5 72t-2.5 82.5t-26.5 68t-65.5 29.5q-38 0 -65 -19.5t-45.5 -52t-30.5 -73t-20 -81t-13 -78t-10 -62.5 l215 1l-43 -241l-198 2l-4 -18q-4 -20 -10.5 -54.5t-11.5 -75.5t-5.5 -84t7.5 -78t27 -58t54 -24q30 -1 51.5 10.5t36.5 31.5t25 45.5t16.5 52.5t10 53.5t7.5 47.5l242 1q-8 -91 -35.5 -180.5t-78 -159.5t-126.5 -112t-181 -39q-78 3 -133.5 33.5t-92 80t-56 113t-26 132 t-1.5 137t18 127.5l4 18l-106 -2l-107 -620h-254l252 1456h255z" />
<glyph unicode="&#x465;" d="M848 453h-174q-2 -15 -5 -38t-4 -49t1 -52t10 -46.5t23 -34t40 -14.5q27 -1 46.5 10.5t32.5 30t21.5 41.5t13.5 45l248 1q-9 -76 -39 -144t-78 -118t-113.5 -78.5t-147.5 -26.5q-96 3 -162 45.5t-104 110t-50 151t-1 167.5l-97 -1l-78 -453h-261l188 1083h261l-78 -445 h79q22 86 57 171t88.5 151.5t129 107t178.5 37.5q87 -2 146 -35t93.5 -87t48 -125.5t10.5 -149.5h-248q0 23 -0.5 50.5t-7.5 51t-23.5 39.5t-48.5 17q-41 1 -66.5 -23.5t-41.5 -60.5t-25 -75.5t-16 -68.5h186z" />
<glyph unicode="&#x466;" d="M809 422h-100l-72 -422h-234l73 422h-74l-204 -422h-295l732 1456h278l225 -1456h-272zM497 623h281l-60 456z" />
<glyph unicode="&#x467;" d="M751 271h-97l-46 -271h-188l48 271h-76l-140 -271h-287l598 1082h274l224 -1082h-262zM486 455h228l-45 265l-6 95l-52 -118z" />
<glyph unicode="&#x468;" d="M856 441l-41 1l-80 -442h-156l82 442h-41l-165 -442h-228l176 440h-131l-77 -440h-220l253 1456h219l-142 -821h175l328 821h215l48 -1456h-212zM689 635h165l1 452z" />
<glyph unicode="&#x469;" d="M838 261h-46l-50 -261h-165l51 262h-51l-121 -262h-231l125 260h-109l-46 -260h-220l188 1082h220l-110 -627h169l300 627h216l112 -1082h-210zM661 455h159l-21 302z" />
<glyph unicode="&#x46a;" d="M867 777q79 -8 134.5 -39.5t88.5 -81t44.5 -114.5t4.5 -140l-65 -402h-275l67 403q4 30 3.5 56.5t-9 46.5t-28 32.5t-53.5 15.5l-22 1l-103 -555h-273l101 558h-37q-77 -1 -114 -42t-50 -114l-67 -402h-274l66 402q25 187 132.5 279t292.5 103l-192 672h1043zM665 885 l182 341h-263z" />
<glyph unicode="&#x46b;" d="M-41 0l36 237q10 81 36 145t69 111t104 76t143 40l-175 473h1020l-363 -482q67 -14 110.5 -49t67.5 -84t30.5 -108t0.5 -121l-37 -238h-272l37 240q3 21 5.5 47.5t-1 49.5t-16.5 40t-42 20l-18 1l-75 -398h-271l74 401h-22q-35 0 -58.5 -14.5t-38 -37t-22.5 -52 t-13 -59.5l-38 -238h-271zM589 626l173 268h-253z" />
<glyph unicode="&#x46c;" d="M250 0l67 434q15 85 55 163l-104 -2l-102 -595h-218l252 1456h218l-114 -660h344l-105 660h768l-344 -668q64 -12 104 -47t62 -84t27.5 -107t-0.5 -115l-76 -435h-209l64 436q3 19 6 43.5t1 47.5t-13.5 40t-37.5 21l-15 1l-107 -589h-206l106 592h-19q-32 -2 -53.5 -16.5 t-35 -37t-21.5 -49.5t-13 -54l-76 -435h-205zM835 972l131 277h-167z" />
<glyph unicode="&#x46d;" d="M270 0l39 260q7 42 20.5 80.5t33.5 76.5l-119 -2l-72 -415h-219l188 1082h219l-83 -478h331l-109 478h746l-288 -490q56 -15 91 -49t54 -79t23.5 -97.5t-1.5 -104.5l-47 -262h-208l35 262q3 21 5.5 44t0 44t-13.5 37t-36 24h-2l-8 -10l-70 -401h-208l76 413h-5 q-30 -1 -50.5 -15.5t-33 -36.5t-20 -48.5t-11.5 -51.5l-50 -261h-208zM793 688l118 223h-156z" />
<glyph unicode="&#x46e;" d="M540 861q48 0 93.5 11.5t82 35.5t61 61t31.5 90q6 45 -6.5 76.5t-38.5 51t-62 28.5t-76 10l-273 1l40 230l244 -1q88 -2 172 -22t147.5 -64t100 -114t29.5 -172q-5 -66 -27.5 -118.5t-59.5 -94.5t-86.5 -73.5t-107.5 -55.5q103 -44 157 -128t46 -197q-8 -110 -55 -192.5 t-121.5 -137t-169.5 -81.5t-197 -27l-56 1q-25 -1 -49.5 -7t-44 -18.5t-33.5 -32t-18 -47.5q-5 -30 3.5 -53t25 -41t38.5 -32t46 -25l-93 -170q-63 19 -113 52.5t-84 79.5t-51 103t-14 123q4 80 36.5 137.5t85 93.5t119.5 53t140 16l60 -1q48 0 94.5 12t84 37t63.5 63t34 90 q8 56 -6 96.5t-44 66.5t-74 39t-95 15l-154 1l41 232zM710 1783l165 124l238 3v-23l-320 -251h-171l-255 250l1 24l224 -2z" />
<glyph unicode="&#x46f;" d="M529 625q35 1 71.5 8t67.5 23.5t53 43t28 67.5q6 36 -10 57t-42 32.5t-58 15.5t-58 5l-273 1l36 204l244 -1q46 -1 97 -6.5t100.5 -18t93.5 -33.5t77 -53t51.5 -76t15.5 -103q-3 -50 -21 -89t-47.5 -70t-67.5 -54.5t-80 -42.5q37 -14 69 -35t55 -49t35.5 -62.5 t11.5 -76.5q-2 -63 -24.5 -112t-58.5 -86.5t-83.5 -63t-101 -42t-109 -23.5t-108.5 -7l-49 1q-26 -1 -52 -6.5t-48.5 -17.5t-38 -31.5t-20.5 -48.5t2 -52t21.5 -41.5t35 -32.5t43.5 -26l-91 -156q-53 22 -98 56t-77.5 78t-49.5 97t-15 113q3 74 33.5 126t79.5 84.5 t111.5 47.5t128.5 15l53 -1q34 0 75 6t77 21t63 41.5t35 68.5q7 42 -11 67t-48.5 38.5t-67.5 18t-67 4.5l-168 1l32 177zM695 1401l165 124l238 3v-23l-320 -251h-171l-255 250l1 24l224 -2z" />
<glyph unicode="&#x470;" d="M773 572q54 17 91 49t61 74.5t37.5 92.5t21.5 102l96 566h275l-96 -566q-16 -111 -55 -204.5t-102.5 -164.5t-152 -116.5t-203.5 -59.5l-67 -345h-273l67 346q-107 15 -180 64.5t-115.5 123t-56 165.5t-1.5 191l95 566h274l-95 -567q-6 -44 -8 -91.5t7.5 -91t34 -78.5 t72.5 -54l159 882h273z" />
<glyph unicode="&#x471;" d="M845 1082l-155 -858q58 25 100 64t71.5 87t48 104t27.5 116q19 121 22.5 244.5t-13.5 244.5l246 -1q30 -119 31 -243t-16 -245q-15 -119 -56.5 -221.5t-109 -182t-162.5 -132t-217 -70.5l-88 -467h-271l88 471q-108 25 -176.5 84.5t-105.5 140t-45.5 176.5t3.5 196 l83 492h273l-83 -496q-6 -44 -9.5 -94.5t2.5 -99t26 -92t61 -71.5l154 853h271z" />
<glyph unicode="&#x472;" d="M1117 622q-13 -81 -38 -161t-63.5 -152t-90 -133.5t-116.5 -105.5t-143 -68t-170 -22q-87 2 -154.5 29.5t-117 74t-81.5 108t-49 132t-20 146.5t7 151l33 212q12 80 36.5 159.5t61 151.5t86.5 134t113 106.5t140 69t168 22.5q88 -2 156.5 -29t120 -73.5t85.5 -108 t52.5 -132t22.5 -147.5t-6 -153zM843 647h-480l-4 -27q-5 -35 -8.5 -78t-3 -88t8.5 -88t27 -77t51.5 -55.5t83.5 -23.5q54 -2 97 15.5t76.5 48.5t58.5 73t42.5 88.5t28.5 94.5t18 91zM391 827h479l2 9q5 37 8 81t0.5 88.5t-12.5 86.5t-31 75t-55 54t-85 23 q-54 2 -96.5 -15.5t-74 -49t-54.5 -73t-38.5 -87.5t-25.5 -93.5t-16 -90.5z" />
<glyph unicode="&#x473;" d="M85 544q14 114 59.5 216.5t118.5 179.5t172.5 121t221.5 41q117 -2 201 -48t136.5 -121.5t72.5 -173.5t9 -205l-3 -22q-14 -114 -59.5 -215.5t-118.5 -177.5t-172.5 -119.5t-220.5 -40.5q-116 2 -200 47.5t-136.5 120t-73 172t-9.5 204.5zM637 878q-57 2 -100.5 -19 t-76 -56t-54 -81.5t-34.5 -95.5h435q1 44 -5.5 88.5t-25.5 80t-52.5 58.5t-86.5 25zM522 200q55 -2 98 18.5t75 55t54 79.5t35 93h-435q0 -44 7 -87t26.5 -78t53 -57t86.5 -24z" />
<glyph unicode="&#x474;" d="M570 395l3 -92l39 98l325 728q29 68 65.5 131t85.5 111.5t111.5 77t143.5 27.5l47 -1l-31 -244h-23q-27 -1 -49 -11.5t-40 -27t-31.5 -38t-24.5 -43.5l-518 -1111h-287l-222 1456l283 1z" />
<glyph unicode="&#x475;" d="M493 389v-89l41 113l172 366q26 61 59.5 120t77.5 105t101.5 73.5t132.5 27.5q57 -1 109 -23l-48 -218q-11 2 -23 4t-23 1q-24 -1 -43.5 -10t-35 -23.5t-28 -33t-22.5 -37.5l-385 -765h-254l-184 1082h275z" />
<glyph unicode="&#x476;" d="M570 395l3 -92l39 98l325 728q29 68 65.5 131t85.5 111.5t111.5 77t143.5 27.5l47 -1l-31 -244h-23q-27 -1 -49 -11.5t-40 -27t-31.5 -38t-24.5 -43.5l-518 -1111h-287l-222 1456l283 1zM776 1638h-244l-239 266h291zM1095 1638h-235l-191 266h281z" />
<glyph unicode="&#x477;" d="M493 389v-89l41 113l172 366q26 61 59.5 120t77.5 105t101.5 73.5t132.5 27.5q57 -1 109 -23l-48 -218q-11 2 -23 4t-23 1q-24 -1 -43.5 -10t-35 -23.5t-28 -33t-22.5 -37.5l-385 -765h-254l-184 1082h275zM689 1333h-244l-239 266h291zM1008 1333h-235l-191 266h281z " />
<glyph unicode="&#x478;" d="M623 478q-7 -49 -19.5 -106t-31.5 -113.5t-46.5 -108t-66 -90.5t-88 -61t-113.5 -20q-59 2 -99 28t-65 68t-37.5 94.5t-16 107t-0.5 107t8 93.5l82 502q6 46 17 101.5t28 111.5t42.5 108.5t61 92.5t82.5 63.5t109 21.5q61 -2 104 -27.5t70.5 -66t42.5 -92t21 -106.5 t4 -108.5t-7 -98.5zM911 668l-13 -156l191 570h177l-440 -1251q-15 -45 -37 -92.5t-53.5 -86t-73.5 -63t-97 -24.5q-26 0 -51.5 5t-50.5 11l14 154q17 -2 34.5 -5t34.5 -2q33 1 55.5 20.5t39 47.5t28 59t21.5 56l40 97l40 1074h169zM515 1023q1 14 4.5 41t5.5 58.5t1 64.5 t-8 60t-22 45t-41 20q-30 2 -52 -13.5t-37 -41.5t-24.5 -58.5t-15.5 -65.5t-9.5 -62.5t-5.5 -48.5l-92 -586q-2 -14 -5.5 -40.5t-6 -58.5t-2 -65.5t7 -61.5t20.5 -46.5t40 -19.5q31 -2 53 13.5t38 41.5t26.5 59t16.5 66t9.5 62.5t6.5 49.5z" />
<glyph unicode="&#x479;" d="M42 546q7 54 19 117.5t32.5 126t50 120t71 101t96 68.5t125.5 23q68 -2 115 -29.5t76.5 -72t45 -101.5t20.5 -117.5t2.5 -120t-7.5 -108.5l-3 -22q-7 -54 -19.5 -117t-33 -125t-50.5 -119t-71.5 -100.5t-96.5 -68t-125 -22.5q-68 2 -114.5 29.5t-76 72t-44.5 101 t-20 116.5t-3 118.5t8 107.5zM911 667l-13 -158l191 573h177l-440 -1251q-15 -46 -37 -93.5t-53.5 -86t-73.5 -62.5t-97 -24q-26 0 -51.5 5t-50.5 11l14 155q17 -2 34.5 -5.5t34.5 -2.5q33 1 55.5 20.5t39 47.5t28 59t21.5 56l40 97l40 1074h169zM235 526q-2 -19 -7.5 -54.5 t-9 -78t-4 -87.5t7.5 -82t26.5 -61t52.5 -26q40 -2 68.5 19.5t48.5 56.5t32.5 79.5t20 89.5t11 84.5t6.5 65.5l3 20q2 19 7.5 55t9 79t4 88t-8 82t-27 61.5t-52.5 26.5q-40 2 -68.5 -19.5t-48.5 -57t-32 -80.5t-19.5 -90t-11.5 -85t-7 -65z" />
<glyph unicode="&#x47a;" d="M780 1124h-191l79 453h191zM564 -136h-192l81 464h192zM1119 622q-13 -81 -38 -161t-63.5 -152t-90 -133.5t-116.5 -105.5t-143 -68t-170 -22q-87 2 -154.5 29.5t-117 74t-81.5 108t-49 132t-20 146.5t7 151l33 212q12 80 36.5 159.5t61 151.5t86.5 134t113 106.5t140 69 t168 22.5q88 -2 156.5 -29t120 -73.5t85.5 -108t52.5 -132t22.5 -147.5t-6 -153zM874 836q5 37 8 81t0.5 88.5t-12.5 86.5t-31 75t-55 54t-85 23q-55 2 -97 -15.5t-73.5 -49t-54.5 -73t-38.5 -87.5t-25.5 -93.5t-16 -90.5l-33 -215q-5 -35 -8.5 -78t-3 -88t8.5 -88t27 -77 t51.5 -55.5t83.5 -23.5q54 -2 97 15.5t76.5 48.5t58.5 73t42.5 88.5t28.5 94.5t18 91z" />
<glyph unicode="&#x47b;" d="M706 764h-166l80 459h166zM545 -147h-168l83 477h168zM92 544q14 114 59.5 216.5t118.5 179.5t172.5 121t221.5 41q117 -2 201 -48t136.5 -121.5t72.5 -173.5t9 -205l-3 -22q-14 -114 -59.5 -215.5t-118.5 -177.5t-172.5 -119.5t-220.5 -40.5q-116 2 -200 47.5 t-136.5 120t-73 172t-9.5 204.5zM361 523q-5 -50 -4 -105.5t17.5 -103t53 -80t101.5 -34.5q68 -2 117.5 28.5t83 79t52 108t26.5 116.5l2 21q3 33 4.5 69.5t-3 72t-15 68t-30 57.5t-49.5 40.5t-73 17.5q-69 2 -118.5 -28t-83 -79t-53 -109t-26.5 -118z" />
<glyph unicode="&#x47c;" d="M958 1457q91 -5 162 -38t118 -89t67.5 -132.5t10.5 -167.5l-108 -667q-12 -87 -48 -159t-92.5 -122.5t-132 -77.5t-165.5 -25q-63 2 -115 29t-84 82q-47 -51 -102 -82t-127 -30q-84 1 -150 30.5t-109.5 80.5t-63 121t-11.5 153l108 667q14 102 55.5 181t105.5 133 t149 82.5t186 30.5l-27 -227q-45 -2 -78 -17.5t-57 -42.5t-38.5 -63t-21.5 -77l-107 -668q-2 -26 -1 -53.5t9.5 -51t27 -38.5t51.5 -16q31 0 50.5 17t31.5 42t18.5 54t9.5 52l72 448h262l-72 -448q-1 -12 -2.5 -29t-2 -35t2 -35.5t9 -32t18.5 -23.5t31 -10q34 -2 58 12.5 t40 38t25.5 52.5t13.5 56l109 670q4 36 3 69.5t-12 60t-35 43.5t-65 21zM1207 1715l-9 -136h-20q-54 2 -103.5 21.5t-98 42.5t-96.5 41.5t-99 18.5q-50 0 -81.5 -28t-40.5 -77l-2 -19l-130 1l3 38q8 106 72.5 163t171.5 55q54 -1 103.5 -19.5t98 -41t98.5 -41t106 -19.5h27z M656 1345q29 33 54.5 68t35.5 80l18 94l146 -1l-14 -101q-5 -33 -19 -63t-35 -55.5t-47 -47t-54 -37.5z" />
<glyph unicode="&#x47d;" d="M853 1103q81 -5 141.5 -37.5t99.5 -85.5t55 -122t9 -146l-56 -383q-10 -73 -39 -138t-76 -113t-110.5 -75t-142.5 -24q-72 2 -122 42t-71 109q-21 -32 -44.5 -59.5t-52 -48.5t-62 -32.5t-73.5 -11.5q-74 1 -129 30.5t-91 78t-51 111.5t-9 131l57 383q12 89 47 160.5 t89.5 122t128.5 79t164 30.5l-21 -193q-44 -1 -71.5 -18.5t-44.5 -45t-25.5 -63t-14.5 -72.5l-53 -360q-2 -19 -4 -45.5t1.5 -51t16 -42.5t39.5 -20q32 -2 52.5 10t33 32t19 45.5t10.5 51.5l36 245h229l-37 -245q-2 -25 -2.5 -50t6.5 -45t24 -32.5t49 -11.5q30 0 47.5 16.5 t28 41t15 52t7.5 50.5l53 360q4 30 8 63t-0.5 61t-21.5 47.5t-56 22.5zM1110 1383l-9 -136h-42q-53 1 -101.5 21t-95 42.5t-93.5 41.5t-96 19q-51 0 -83 -27.5t-41 -77.5l-2 -19l-133 1l3 38q9 108 74.5 164t174.5 54q53 -1 101 -19.5t95 -40.5t96 -41t104 -20h48zM574 1006 q29 33 54.5 68t35.5 80l18 94l146 -1l-14 -101q-5 -33 -19 -63t-35 -55.5t-47 -47t-54 -37.5z" />
<glyph unicode="&#x47e;" d="M463 1799h723l-20 -112h-281l-22 -127h-178l23 127h-265zM1311 1456l-185 -1085q-10 -77 -38 -149t-74.5 -126.5t-112 -86.5t-151.5 -30q-67 2 -120 33t-82 92q-43 -55 -96.5 -90.5t-125.5 -34.5q-83 1 -140.5 34.5t-93 88t-48.5 124t-5 143.5l184 1087h253l-183 -1088 q-2 -19 -3.5 -46.5t3 -53t17.5 -44.5t42 -20q30 -1 49 16.5t30.5 43t17 54.5t8.5 50l183 1088h253l-181 -1088q-2 -20 -3.5 -48t4 -53.5t20 -43.5t44.5 -19q28 -1 46 17t28.5 44t15 54.5t7.5 48.5l183 1088h254z" />
<glyph unicode="&#x47f;" d="M399 1457h724l-20 -112h-281l-23 -127h-177l23 127h-266zM1215 1082l-116 -688q-11 -77 -36 -152t-69.5 -134.5t-109 -95.5t-153.5 -33q-69 2 -121.5 36t-78.5 99q-21 -29 -45 -54t-51.5 -43t-60 -28.5t-70.5 -9.5q-85 1 -140.5 39.5t-86.5 97.5t-40.5 132t-1.5 145 l115 689h247l-113 -690q-1 -11 -3 -29t-3 -39t0 -42.5t7 -39t17 -29t30 -12.5q34 -2 54.5 19t32.5 51.5t17.5 64t8.5 56.5l113 690h253l-113 -690q-2 -20 -4.5 -52t1 -62.5t18 -53t46.5 -23.5q30 -1 47.5 21.5t27.5 53.5t14 63.5t6 52.5l114 690h247z" />
<glyph unicode="&#x480;" d="M674 -365h-275l68 354q-104 23 -176 81.5t-114 139.5t-56 177.5t-1 194.5l46 290q11 75 34.5 149.5t59.5 142.5t83.5 126t107.5 100t132.5 65.5t157.5 21.5q114 -2 193.5 -42t128.5 -107.5t68.5 -158.5t13.5 -196h-275q3 46 2 94.5t-15.5 88.5t-47 66t-90.5 28 q-47 1 -85 -15.5t-67 -46t-50.5 -68.5t-37 -81.5t-25 -85t-15.5 -79.5l-45 -293q-8 -56 -6 -120t21.5 -119.5t61 -93t113.5 -41.5l189 -2z" />
<glyph unicode="&#x481;" d="M659 -367h-272l69 358q-92 22 -153 76t-95.5 126.5t-45.5 157.5t-2 171l3 31q13 111 57.5 212t116 177t168.5 119.5t216 40.5q93 -2 165 -34.5t120.5 -88.5t72.5 -132t20 -166l-255 1q1 37 -5.5 71.5t-23.5 61.5t-45 44t-70 19q-67 3 -114 -27t-78.5 -78t-49.5 -106.5 t-25 -113.5l-3 -30q-5 -46 -6.5 -100t11.5 -101.5t45 -81t93 -36.5l185 -2z" />
<glyph unicode="&#x482;" d="M558 440l251 -172l-84 -117l-253 170l-232 -321h-186l294 407l-251 171l84 117l254 -171l267 371l-253 171l86 119l253 -171l237 328h183l-299 -414l256 -171l-89 -116l-249 169z" />
<glyph unicode="&#x483;" horiz-adv-x="10" d="M-410 1312l-22 -126l-174 1l42 238h530l18 108l173 -1l-39 -220h-528z" />
<glyph unicode="&#x484;" horiz-adv-x="10" d="M-570 1437q63 1 122 19.5t117 41t116.5 40.5t120.5 17q51 0 92 -13.5t68.5 -40t41 -66.5t10.5 -93l-4 -40l-130 1l2 20q3 45 -15 70.5t-65 27.5q-59 3 -117.5 -15t-117.5 -40.5t-118.5 -42.5t-121.5 -21h-51l9 135h41z" />
<glyph unicode="&#x485;" horiz-adv-x="10" d="M-348 1517l20 110l185 -6l-26 -135l37 -113l-84 -75z" />
<glyph unicode="&#x486;" horiz-adv-x="10" d="M-330 1299l-73 98l79 116l18 109l186 5l-23 -133z" />
<glyph unicode="&#x488;" horiz-adv-x="10" d="M-525 1268q6 43 24 78t46.5 59.5t66 37.5t82.5 12q88 -1 139 -51.5t49 -137.5h-109q1 21 -2 39.5t-11.5 32.5t-24.5 22t-40 8q-47 0 -72.5 -29.5t-36.5 -70.5h-111zM0 991q6 43 24 78t46.5 59.5t65.5 37.5t82 12q88 -1 139.5 -51t49.5 -138h-110q1 21 -2 39.5t-11.5 32.5 t-24.5 22t-40 8q-47 0 -72 -29.5t-36 -70.5h-111zM96 487q6 43 23.5 78.5t46 60t65.5 37.5t82 12q88 -1 139 -51.5t49 -137.5h-110q1 21 -1.5 39.5t-11.5 32.5t-24.5 22t-39.5 8q-47 0 -72.5 -29.5t-36.5 -70.5zM-184 -32q5 43 23 78.5t46 60t65 37.5t82 12q88 -1 139 -51.5 t49 -137.5h-110q1 21 -1.5 39.5t-11.5 32.5t-24.5 22t-39.5 8q-47 0 -72.5 -29.5t-36.5 -70.5zM-794 -315q6 43 24 78t46 59.5t65.5 37.5t82.5 12q88 -1 139.5 -51.5t49.5 -137.5h-110q1 21 -2 39.5t-11.5 32.5t-24 22t-39.5 8q-47 0 -72.5 -29.5t-36.5 -70.5h-111z M-1129 991q12 88 71.5 138t148.5 49q88 -1 139 -51.5t49 -137.5h-109q1 21 -2 39.5t-11.5 32.5t-24.5 22t-40 8q-47 0 -72.5 -29.5t-36.5 -70.5h-112zM-1385 487q6 43 23.5 78.5t46 60t66 37.5t82.5 12q88 -1 138.5 -51.5t48.5 -137.5h-109q1 21 -2 39.5t-11.5 32.5 t-24.5 22t-40 8t-41.5 -8t-30.5 -21.5t-22 -31.5t-15 -39zM-1314 -32q6 43 23.5 78.5t46 60t66 37.5t82.5 12q87 -1 138.5 -51.5t50.5 -137.5h-111q1 21 -2 39.5t-11.5 32.5t-24 22t-39.5 8q-48 0 -73 -29.5t-36 -70.5z" />
<glyph unicode="&#x489;" horiz-adv-x="10" d="M-667 -58l13 -17l-170 -338h-102l126 352zM-637 1124l-14 17l170 337h102l-126 -351zM-78 632l10 10l312 -128l-17 -90l-318 68zM-1229 432l-10 -10l-313 128l17 90l319 -68zM-242 1002l2 18l331 152l63 -78l-304 -190zM-1072 21l-3 -19l-330 -152l-64 79l305 190z M-1054 860l-17 1l-95 339l65 59l150 -303zM-263 161l19 -2l94 -337l-66 -61l-149 303z" />
<glyph unicode="&#x48a;" d="M923 1456h281l-253 -1456h-275l159 912l-552 -912h-280l253 1456h274l-159 -913zM1108 1836q-5 -71 -34.5 -126.5t-77 -93t-109 -56.5t-130.5 -18q-67 1 -123.5 21.5t-97.5 58t-64 91.5t-22 123l193 -1q-2 -59 25 -96t92 -38t103 36t49 97zM1172 8q-11 -64 -34 -124 t-57 -114.5t-77 -102.5t-92 -88l-142 78q50 81 88.5 161.5t55.5 175.5l40 234h255z" />
<glyph unicode="&#x48b;" d="M858 1082h278l-188 -1082h-271l118 674l-504 -674h-278l188 1082h271l-118 -674zM1058 1527q-5 -71 -34.5 -126.5t-77 -93t-109 -56.5t-130.5 -18q-67 1 -123.5 21.5t-97.5 58t-64 91.5t-22 123l193 -1q-2 -59 25 -96t92 -38t103 36t49 97zM1170 8q-11 -64 -34 -124 t-57 -114.5t-77 -102.5t-92 -88l-142 78q50 81 88.5 161.5t55.5 175.5l40 234h255z" />
</font>
</defs>
</svg>
